Сегодня идет свободное скачивание без начисления Download

За спичками (Леонид Гайдай, Ристо Орко) (1980, Эксцентрическая Комедия) DVDRip (Реставрация "КП")

Ответить на тему
 
Автор
Сообщение

Omen ®

Стаж: 5 лет 10 месяцев

Сообщений: 184329

Торрент-статистика

Пост 31-Янв-2013 11:13

[Цитировать]

За спичками - Русское название: За спичками
Год выпуска: 1980
Страна: СССР, Финляндия
Жанр: Эксцентрическая Комедия
Режиссер: Леонид Гайдай, Ристо Орко
Актеры: Евгений Леонов, Вячеслав Невинный, Рита Полстер, Ритва Валкама, Георгий Вицин, Галина Польских, Сергей Филиппов, Нина Гребешкова, Михаил Пуговкин, Леонид Куравлев.
Описание фильма:
Отправляясь в город за спичками, финский крестьянин никак не предполагал, что его ждут такие приключения.
Случайная встреча с приятелем, а дальше - целая череда невероятных событий.
Герои попадают из одной переделки в другую, так что сами уже не знают, плакать им или смеяться...
По мотивам одноименной повести М. Лассила.-*Полная реставрация изображения и звука - "КП"*
-Продолжительность: 01:33:50
Перевод: Оригинальный
Видеокодек: Xvid
Битрейт видео: ~1626 Kb/s, 25 fps, 0.18 bit/pixel
Размер кадра: 704x512 (1.38:1)
Качество видео: DVDRip
Аудиокодек: AC3
Битрейт аудио: 448 Kb/s, 6Ch
Респект за ДВД: lordik76
Рип: Modus Vivendi

MediaInfo:

Формат : AVI
Формат/Информация : Audio Video Interleave
Размер файла : 1,37 Гбайт
Продолжительность : 1 ч. 33 м.
Общий поток : 2084 Кбит/сек
Программа кодирования : VirtualDubMod 1.5.10.2 (build 2540/release)
Библиотека кодирования : VirtualDubMod build 2540/release
Видео
Идентификатор : 0
Формат : MPEG-4 Visual
Профиль формата : Advanced [email protected]
Параметр BVOP формата : 2
Параметр QPel формата : Нет
Параметр GMC формата : Без точки перехода
Параметр матрицы формата : Default (MPEG)
Идентификатор кодека : XVID
Идентификатор кодека/Подсказка : XviD
Продолжительность : 1 ч. 33 м.
Битрейт : 1627 Кбит/сек
Ширина : 704 пикс.
Высота : 512 пикс.
Соотношение сторон : 1,375
Частота кадров : 25,000 кадр/сек
Цветовое пространство : YUV
Подвыборка цветности : 4:2:0
Битовая глубина : 8 бит
Тип развёртки : Прогрессивная
Метод сжатия : С потерями
Бит/(Пиксели*Кадры) : 0.180
Размер потока : 1,07 Гбайт (78%)
Библиотека кодирования : XviD 1.2.1 (UTC 2008-12-04)
Аудио
Идентификатор : 1
Формат : AC-3
Формат/Информация : Audio Coding 3
Расширение режима : CM (complete main)
Идентификатор кодека : 2000
Продолжительность : 1 ч. 33 м.
Вид битрейта : Постоянный
Битрейт : 448 Кбит/сек
Каналы : 6 каналов
Расположение каналов : Front: L C R, Side: L R, LFE
Частота : 48,0 КГц
Битовая глубина : 16 бит
Метод сжатия : С потерями
Размер потока : 301 Мбайт (21%)
Выравнивание : Разделение по промежуткам
Продолжительность промежутка : 40 мс. (1,00 видеокадр)
Время предзагрузки промежутка : 500 ms
Скриншоты:
       
       
Вне форума [Профиль] [ЛС]
Показать сообщения:    
Ответить на тему

Текущее время: Сегодня 19:43

Часовой пояс: GMT + 3



Вы не можете начинать темы
Вы не можете отвечать на сообщения
Вы не можете редактировать свои сообщения
Вы не можете удалять свои сообщения
Вы не можете голосовать в опросах
Вы не можете прикреплять файлы к сообщениям
Вы не можете скачивать файлы