Today is a free download without charge Download

Потогонное производство / Sweatshop (Стэйси Дэвидсон / Stacy Davidson) [2009, США, ужасы, слэшер, BDRemux 1080p] [Uncut] VO (HaseRiLLoPaW) + Original Eng

Reply to topic
 
Author
Message

Omen ®

Longevity: 8 years 5 months

Posts: 181087

Торрент-статистика

Post 31-Jan-2013 09:04

[Quote]

Потогонное производство / Sweatshop Uncut«One Hammer... No Prisoners» Год выпуска: 2009
Страна: США
Жанр: ужасы, слэшер
Продолжительность: 01:30:32.885
Перевод: Одноголосый закадровый HaseRiLLoPaW Ненормативная лексика
Оригинальная аудиодорожка: Английская
Субтитры: нет
Студия: Bloodline Entertainment, Odyssee Pictures, Starving Kappa Pictures
Режиссёр: Стэйси Дэвидсон / Stacy Davidson
В ролях: Эшли Кэй, Пейтон Ветцел, Brent Himes, Melanie Donihoo, Naika Malveaux, Юлин, Кристал Фриман, Даниэль Джонс, Винсент Герерро, Джереми Сумралл и др.
Описание: Чарли и её друзья решили устроить вечеринку на заброшенном складе. Но они не догадываются, что нечто ужасное притаилось в этом тёмном месте. Питаемый неуправляемым гневом и не спровоцированной яростью, этот зверь в сварочной маске знает только одно… Чарли и её спутники выбрали не то место для развлечений и они заплатят за это.
  • Кинопоиск
  • IMDB
  • Blu-ray.com
  • Сэмпл
    Качество: BDRemux 1080p
    Контейнер: MKV
    Видео кодек: MPEG-4 AVC Video
    Аудио кодек: Dolby Digital Audio / DTS-HD Master Audio
    Видео: MPEG-4 AVC Video / 24301 kbps / 1920x1080p / 23,976 fps / 16:9 / High Profile 4.1
    Аудио 1: Русский / Dolby Digital Audio / 2.0 / 48 kHz / 128 kbps / 16-bit (VO HaseRiLLoPaW)
    Аудио 2: English / DTS-HD Master Audio / 2.0 / 48 kHz / 1708 kbps / 16-bit (DTS Core: 2.0 / 48 kHz / 1509 kbps / 16-bit) (Оригинал)
    Навигация по главам: да

Скриншот с названием фильма

MediaInfo

C:\/*spam*/\Потогонное производство (Sweatshop) 2009, США, ужасы, слэшер, Uncut BDRemux 1080p GORESEWAGE.mkv
General
Unique ID : 185598945884365936078124006027683948871 (0x8BA10E8755A20CBBA25B6FC82493E947)
Complete name : C:\/*spam*/\Потогонное производство (Sweatshop) 2009, США, ужасы, слэшер, Uncut BDRemux 1080p GORESEWAGE.mkv
Format : Matroska
Format version : Version 4 / Version 2
File size : 16.5 GiB
Duration : 1h 30mn
Overall bit rate mode : Variable
Overall bit rate : 26.1 Mbps
Movie name : GORESEWAGE
Encoded date : UTC 2013-01-31 01:39:01
Writing application : mkvmerge v6.0.0 ('Coming Up For Air') built on Jan 20 2013 09:52:00
Writing library : libebml v1.3.0 + libmatroska v1.4.0
Video #1
ID : 1
Format : AVC
Format/Info : Advanced Video Codec
Format profile : [email protected]
Format settings, CABAC : Yes
Format settings, ReFrames : 3 frames
Codec ID : V_MPEG4/ISO/AVC
Duration : 1h 30mn
Bit rate mode : Variable
Bit rate : 23.9 Mbps
Maximum bit rate : 30.0 Mbps
Width : 1 920 pixels
Height : 1 080 pixels
Display aspect ratio : 16:9
Frame rate mode : Constant
Frame rate : 23.976 fps
Standard : NTSC
Color space : YUV
Chroma subsampling : 4:2:0
Bit depth : 8 bits
Scan type : Progressive
Bits/(Pixel*Frame) : 0.481
Stream size : 15.1 GiB (92%)
Title : GORESEWAGE
Language : English
Default : Yes
Forced : No
Color primaries : BT.709
Transfer characteristics : BT.709
Matrix coefficients : BT.709
Audio #2
ID : 2
Format : AC-3
Format/Info : Audio Coding 3
Mode extension : CM (complete main)
Format settings, Endianness : Big
Codec ID : A_AC3
Duration : 1h 30mn
Bit rate mode : Constant
Bit rate : 128 Kbps
Channel(s) : 2 channels
Channel positions : Front: L R
Sampling rate : 48.0 KHz
Bit depth : 16 bits
Compression mode : Lossy
Stream size : 82.9 MiB (0%)
Title : Одноголосый закадровый HaseRiLLoPaW
Language : Russian
Default : Yes
Forced : No
Audio #3
ID : 3
Format : DTS
Format/Info : Digital Theater Systems
Format profile : MA / Core
Codec ID : A_DTS
Duration : 1h 30mn
Bit rate mode : Variable
Bit rate : 1 558 Kbps / 1 510 Kbps
Channel(s) : 2 channels
Channel positions : Front: L R
Sampling rate : 48.0 KHz
Bit depth : 16 bits
Compression mode : Lossless / Lossy
Title : Оригинал
Language : English
Default : No
Forced : No
Menu
00:00:00.000 : en:00:00:00.000
00:06:57.000 : en:00:06:57.000
00:15:01.943 : en:00:15:01.943
00:22:39.024 : en:00:22:39.024
00:28:49.978 : en:00:28:49.978
00:35:36.968 : en:00:35:36.968
00:43:56.008 : en:00:43:56.008
00:50:53.008 : en:00:50:53.008
00:58:07.901 : en:00:58:07.901
01:05:18.915 : en:01:05:18.915
01:12:40.982 : en:01:12:40.982
01:20:07.928 : en:01:20:07.928

Полноразмерный постер

Other forum [Profile] [PM]
Display posts from previous:    
Reply to topic

The time now is: Today 09:42

All times are GMT + 3 Hours



You cannot post new topics in this forum
You cannot reply to topics in this forum
You cannot edit your posts in this forum
You cannot delete your posts in this forum
You cannot vote in polls in this forum
You cannot attach files in this forum
You cannot download files in this forum