Today is a free download without charge Download

Орел Девятого легиона / The Eagle (Кевин МакДональд) [2010 г., драма, история, BDRip][1080p][Dark Tracker]

Reply to topic
 
Author
Message

Varius ®

Gender:

Longevity: 9 years 7 months

Posts: 2416

Location: Hell

Торрент-статистика

Post 19-May-2011 05:19

[Quote]

Орел Девятого легиона / The Eagle
Год выпуска: 2010
Страна: США
Жанр: драма, история
Продолжительность: 114 мин.
Перевод: Профессиональный (полное дублирование)
Режиссер: Кевин МакДональд
Продюссер: Дункан Кенуорси, Кэролайн Хьюит, Майлз Кетли
Сценарий: Джереми Брок, Розмари Сатклифф
Бюджет: $25 000 000
Премьера в мире: 9 февраля 2011
PG-13 - Детям до 13 лет просмотр не желателен
6.20 (6 257)

В ролях: Ченнинг Татум, Джейми Белл, Дональд Сазерленд, Марк Стронг, Дэкин Мэтьюз, Истван Гёз, Bence Gerö, Дэнис О’Харе, Пол Риттер, Жолт Ласло
Описание: II век нашей эры. Молодой центурион Маркус Акила прибывает из Рима на Британские острова, и отправляется в горы Шотландии на поиски пропавшего 20 лет назад легендарного Девятого легиона, которым командовал его отец... Дикие племена и непредсказуемые опасности стоят на пути героя, но он во чтобы то ни стало должен найти след римских воинов и спасти главный символ легиона — Орла Девяти.
Доп. информация: Субтитры Русский
Качество: BDRip
Формат: AVI
Видео кодек: H.264
Аудио кодек: AC3
Видео: 4821 Кбит/сек, 1920*816 (2,35:1), в 23,976 кадр/сек, AVC ([email protected]) (CABAC / 9 Ref Frames)
Аудио: Русский:640 Кбит/сек, 48,0 КГц, 16 бит, 6 каналов, AC-3 Русский: PGS
Релиз от: Dark Tracker

MI

General
Unique ID : 226885931555294574810221830904802505015 (0xAAB0A41593F4E09EA73E8DABC41CF137)
Complete name : E:\video\THE_EAGLE_BD.mkv
Format : Matroska
File size : 4.36 GiB
Duration : 1h 55mn
Overall bit rate : 5 426 Kbps
Encoded date : UTC 2011-05-18 02:40:32
Writing application : mkvmerge v4.7.0 ('Just Like You Imagined') built on Apr 21 2011 01:13:14
Writing library : libebml v1.2.0 + libmatroska v1.1.0
Video
ID : 1
Format : AVC
Format/Info : Advanced Video Codec
Format profile : [email protected]
Format settings, CABAC : Yes
Format settings, ReFrames : 9 frames
Codec ID : V_MPEG4/ISO/AVC
Duration : 1h 55mn
Bit rate : 4 821 Kbps
Width : 1 920 pixels
Height : 816 pixels
Display aspect ratio : 2.35:1
Frame rate : 23.976 fps
Color space : YUV
Chroma subsampling : 4:2:0
Bit depth : 8 bits
Scan type : Progressive
Bits/(Pixel*Frame) : 0.128
Stream size : 3.76 GiB (86%)
Writing library : x264 core 115 r1995 c1e60b9
Encoding settings : cabac=1 / ref=9 / deblock=1:0:0 / analyse=0x3:0x113 / me=hex / subme=7 / psy=1 / psy_rd=1.00:0.00 / mixed_ref=1 / me_range=16 / chroma_me=1 / trellis=1 / 8x8dct=1 / cqm=0 / deadzone=21,11 / fast_pskip=1 / chroma_qp_offset=-2 / threads=3 / sliced_threads=0 / nr=0 / decimate=1 / interlaced=0 / bluray_compat=0 / constrained_intra=0 / bframes=5 / b_pyramid=2 / b_adapt=1 / b_bias=0 / direct=1 / weightb=1 / open_gop=0 / weightp=2 / keyint=250 / keyint_min=23 / scenecut=40 / intra_refresh=0 / rc_lookahead=40 / rc=2pass / mbtree=1 / bitrate=4821 / ratetol=1.0 / qcomp=0.60 / qpmin=0 / qpmax=69 / qpstep=4 / cplxblur=20.0 / qblur=0.5 / ip_ratio=1.40 / aq=1:1.00
Language : English
Audio
ID : 2
Format : AC-3
Format/Info : Audio Coding 3
Mode extension : CM (complete main)
Codec ID : A_AC3
Duration : 1h 55mn
Bit rate mode : Constant
Bit rate : 640 Kbps
Channel(s) : 6 channels
Channel positions : Front: L C R, Side: L R, LFE
Sampling rate : 48.0 KHz
Bit depth : 16 bits
Compression mode : Lossy
Stream size : 527 MiB (12%)
Language : Russian
Text
ID : 3
Format : PGS
Muxing mode : zlib
Codec ID : S_HDMV/PGS
Codec ID/Info : The same subtitle format used on BDs/HD-DVDs
Language : Russian
Menu
00:00:00.000 : en:00:00:00.000
00:08:34.097 : en:00:08:34.097
00:14:29.494 : en:00:14:29.494
00:20:37.278 : en:00:20:37.278
00:28:12.274 : en:00:28:12.274
00:34:58.138 : en:00:34:58.138
00:41:25.566 : en:00:41:25.566
00:48:37.706 : en:00:48:37.706
00:55:30.369 : en:00:55:30.369
01:02:57.857 : en:01:02:57.857
01:09:25.870 : en:01:09:25.870
01:15:48.419 : en:01:15:48.419
01:22:58.182 : en:01:22:58.182
01:31:12.717 : en:01:31:12.717
01:39:44.604 : en:01:39:44.604
01:47:46.293 : en:01:47:46.293

_________________

Создавая "Новую папку", не считайте себя Создателем - это право Вам дано Админом




Last edited by Varius on 2011-05-19 14:18; edited 3 times in total
Other forum [Profile] [PM]
Display posts from previous:    
Reply to topic

The time now is: Today 11:37

All times are GMT + 3 Hours



You cannot post new topics in this forum
You cannot reply to topics in this forum
You cannot edit your posts in this forum
You cannot delete your posts in this forum
You cannot vote in polls in this forum
You cannot attach files in this forum
You cannot download files in this forum