Today is a free download without charge Download

AC/DC - Live At River Plate (David Mallet) [2011 г., Hard Rock, BDRip720p]

Reply to topic
 
Author
Message

Delia ®

Gender:

Longevity: 10 years

Posts: 1821

Торрент-статистика

Post 16-May-2011 07:59

[Quote]

AC/DC - Live At River Plate Исполнитель: AC/DC
Год выпуска: 2011
Страна: США, Columbia Records
Жанр: Hard Rock
Продолжительность: 01:51:37
Перевод: Не требуется
Режиссер: David Mallet
Состав AC/DC:
Brian Johnson - Vocals
Angus Young - Lead guitars
Malcolm Young - Rhythm guitars
Cliff Williams - Bass Guitars
Phil Rudd - Drums and percussion
Описание: Новый концертный тур знаменитой австралийской группы AC/DC. Его основу составляют произведения, которые музыканты исполнили на знаменитых концертах в Аргентине, прошедших в декабре 2009 года. Съемки состоялись в Буэнос-Айресе перед 200 000 фанатов и были осуществлены на 32 камеры.
Официальный сайт
Качество: BDRip 720p
Формат: MKV
Видео кодек: H.264
Аудио кодек: AC3
Видео: English, 4969 Кбит/сек, 1280*720 (16:9), в 23,976 кадр/сек, AVC ([email protected])
Аудио: English, 640 Кбит/сек, 48,0 КГц, 16 бит, 6 каналов, AC-3

Треклист:

01. Rock N Roll Train
02. Hell Ain’t A Bad Place To Be
03. Back In Black
04. Big Jack
05. Dirty Deeds Done Dirt Cheap
06. Shot Down In Flames
07. Thunderstruck
08. Black Ice
09. The Jack
10. Hells Bells
11. Shoot To Thrill
12. War Machine
13. Dog Eat Dog
14. You Shook Me All Night Long
15. T.N.T.
16. Whole Lotta Rosie
17. Let There Be Rock
18. Highway To Hell
19. For Those About To Rock (We Salute You)

mediaInfo:

Общее
Уникальный идентификатор : 216668074675535876007802742391741214977 (0xA300C0D8562AE8ADB87C7874D01DF101)
Полное имя : E:\торрент\AC DC - Live At River Plate ( 2011)BDRip720p.mkv
Формат : Matroska
Размер файла : 4,37 Гбайт
Продолжительность : 1 ч. 51 м.
Общий поток : 5610 Кбит/сек
Дата кодирования : UTC 2011-05-16 03:29:16
Программа кодирования : mkvmerge v4.7.0 ('Just Like You Imagined') built on Apr 21 2011 01:13:14
Библиотека кодирования : libebml v1.2.0 + libmatroska v1.1.0
Видео
Идентификатор : 1
Формат : AVC
Формат/Информация : Advanced Video Codec
Профиль формата : [email protected]
Параметр CABAC формата : Да
Параметр ReFrames формата : 8 кадров
Параметры GOP формата : M=3, N=25
Идентификатор кодека : V_MPEG4/ISO/AVC
Продолжительность : 1 ч. 51 м.
Битрейт : 4969 Кбит/сек
Ширина : 1280 пикс.
Высота : 720 пикс.
Соотношение сторон : 16:9
Частота кадров : 23,976 кадр/сек
Цветовое пространство : YUV
Подвыборка цветности : 4:2:0
Битовая глубина : 8 бит
Тип развёртки : Прогрессивная
Бит/(Пиксели*Кадры) : 0.225
Размер потока : 3,79 Гбайт (87%)
Библиотека кодирования : x264 core 115 r1995 c1e60b9
Настройки программы : cabac=1 / ref=8 / deblock=1:-1:-1 / analyse=0x3:0x133 / me=umh / subme=7 / psy=1 / psy_rd=1.00:0.00 / mixed_ref=1 / me_range=32 / chroma_me=1 / trellis=2 / 8x8dct=1 / cqm=0 / deadzone=21,11 / fast_pskip=0 / chroma_qp_offset=-2 / threads=6 / sliced_threads=0 / nr=0 / decimate=1 / interlaced=0 / bluray_compat=0 / constrained_intra=0 / bframes=2 / b_pyramid=2 / b_adapt=1 / b_bias=0 / direct=1 / weightb=1 / open_gop=0 / weightp=2 / keyint=250 / keyint_min=24 / scenecut=40 / intra_refresh=0 / rc_lookahead=50 / rc=2pass / mbtree=1 / bitrate=4969 / ratetol=1.0 / qcomp=0.80 / qpmin=10 / qpmax=51 / qpstep=4 / cplxblur=20.0 / qblur=0.5 / ip_ratio=1.40 / aq=1:1.00
Язык : English
Аудио
Идентификатор : 2
Формат : AC-3
Формат/Информация : Audio Coding 3
Расширение режима : CM (complete main)
Идентификатор кодека : A_AC3
Продолжительность : 1 ч. 51 м.
Вид битрейта : Постоянный
Битрейт : 640 Кбит/сек
Каналы : 6 каналов
Расположение каналов : Front: L C R, Side: L R, LFE
Частота : 48,0 КГц
Битовая глубина : 16 бит
Метод сжатия : С потерями
Размер потока : 511 Мбайт (11%)
Язык : English

Скриншоты

           

_________________
Человек – это канат, натянутый между животным и сверхчеловеком, – канат над пропастью.
В человеке ценно то, что он мост, а не цель. Фридрих Ницше


Last edited by Delia on 2011-08-20 21:09; edited 4 times in total
Other forum [Profile] [PM]

zhuk.m

Gender:

Longevity: 10 years

Posts: 408

Location: Гондурас

Торрент-статистика

Post 16-May-2011 08:38 (after 38 minutes)

[Quote]

Спасибо, скачаю и этот, помогу на раздаче.

_________________
Est modus in rebus
Other forum [Profile] [PM]

Delia ®

Gender:

Longevity: 10 years

Posts: 1821

Торрент-статистика

Post 16-May-2011 11:00 (after 2 hours 22 minutes)

[Quote]

Спасибо.

_________________
Человек – это канат, натянутый между животным и сверхчеловеком, – канат над пропастью.
В человеке ценно то, что он мост, а не цель. Фридрих Ницше
Other forum [Profile] [PM]
Display posts from previous:    
Reply to topic

The time now is: Today 07:25

All times are GMT + 3 Hours



You cannot post new topics in this forum
You cannot reply to topics in this forum
You cannot edit your posts in this forum
You cannot delete your posts in this forum
You cannot vote in polls in this forum
You cannot attach files in this forum
You cannot download files in this forum