Today is a free download without charge Download

Час расплаты / Paycheck (Джон Ву) [2003 г., фантастика, боевик, триллер, детектив, BDRip720p]

Reply to topic
 
Author
Message

Delia ®

Gender:

Longevity: 9 years 6 months

Posts: 1821

Торрент-статистика

Post 15-May-2011 10:30

[Quote]

Час расплатыPaycheck Год выпуска: 2003
Страна: США, Канада
Жанр: фантастика, боевик, триллер, детектив
Продолжительность: 01:58:46
Перевод: Профессиональный (полное дублирование)
Режиссер: Джон Ву
Продюссер: Теренс Чанг, Джон Дэвис, Майкл Хэкетт
Сценарий: Филип К. Дик, Дин Георгарис
Бюджет: $60 000 000
Премьера в мире: 25 декабря 2003
В ролях: Бен Аффлек, Аарон Экхарт, Ума Турман, Пол Джаматти, Колм Фиор, Джо Мортон, Майкл С. Холл, Питер Фридман, Кэтрин Моррис, Ивана Миличевич
Описание: Майкл Дженнингс — выдающийся компьютерный инженер-виртоуз, работающий над строго засекреченными мега-проектами. После успешного выполнения работы Майклу на специальном устройстве стирают часть памяти, дабы он не смог вспомнить никаких подробностей. Последнее дело Дженнингса — контракт на три года от старого друга, по завершении которого герой должен получить чек на «скромную» восьмизначную сумму.
Качество: BDRip 720p ( Blu-Ray CEE 1080p)
Формат: MKV
Видео кодек: H.264
Аудио кодек: AC3
Видео: English, 4182 Кбит/сек, 1280*544 (2,35:1), в 23,976 кадр/сек, AVC ([email protected])
Аудио: Russian, 384 Кбит/сек, 48,0 КГц, 16 бит, 6 каналов, AC-3| Профессиональный (полное дублирование)
Аудио:Russian, 384 Кбит/сек, 48,0 КГц, 16 бит, 6 каналов, AC-3|Ю.Живов
Аудио:English, 320 Кбит/сек, 48,0 КГц, 16 бит, 6 каналов, AC-3|оригинал
Субтитры:Russian, English - VobSub

MediaInfo:

Общее
Уникальный идентификатор : 192176196390450241704534181702643759147 (0x9093CA03F1AB93B29C9071780138382B)
Полное имя : E:\торрент\Paycheck ( 2003 )BDRip720p.mkv
Формат : Matroska
Размер файла : 4,38 Гбайт
Продолжительность : 1 ч. 58 м.
Общий поток : 5277 Кбит/сек
Дата кодирования : UTC 2011-05-14 20:25:34
Программа кодирования : mkvmerge v4.7.0 ('Just Like You Imagined') built on Apr 21 2011 01:13:14
Библиотека кодирования : libebml v1.2.0 + libmatroska v1.1.0
Видео
Идентификатор : 1
Формат : AVC
Формат/Информация : Advanced Video Codec
Профиль формата : [email protected]
Параметр CABAC формата : Да
Параметр ReFrames формата : 9 кадров
Идентификатор кодека : V_MPEG4/ISO/AVC
Продолжительность : 1 ч. 58 м.
Битрейт : 4182 Кбит/сек
Ширина : 1280 пикс.
Высота : 544 пикс.
Соотношение сторон : 2,35:1
Частота кадров : 23,976 кадр/сек
Цветовое пространство : YUV
Подвыборка цветности : 4:2:0
Битовая глубина : 8 бит
Тип развёртки : Прогрессивная
Бит/(Пиксели*Кадры) : 0.250
Размер потока : 3,39 Гбайт (77%)
Библиотека кодирования : x264 core 115 r1947 b5a8ad7
Настройки программы : cabac=1 / ref=9 / deblock=1:-3:-3 / analyse=0x3:0x133 / me=umh / subme=7 / psy=1 / psy_rd=1.00:0.15 / mixed_ref=1 / me_range=32 / chroma_me=1 / trellis=2 / 8x8dct=1 / cqm=0 / deadzone=21,11 / fast_pskip=0 / chroma_qp_offset=-3 / threads=6 / sliced_threads=0 / nr=0 / decimate=1 / interlaced=0 / bluray_compat=0 / constrained_intra=0 / bframes=5 / b_pyramid=2 / b_adapt=1 / b_bias=0 / direct=1 / weightb=1 / open_gop=0 / weightp=2 / keyint=250 / keyint_min=24 / scenecut=40 / intra_refresh=0 / rc_lookahead=50 / rc=2pass / mbtree=1 / bitrate=4182 / ratetol=1.0 / qcomp=0.80 / qpmin=5 / qpmax=51 / qpstep=4 / cplxblur=20.0 / qblur=0.5 / ip_ratio=1.40 / aq=1:1.00
Язык : English
Аудио #1
Идентификатор : 2
Формат : AC-3
Формат/Информация : Audio Coding 3
Расширение режима : CM (complete main)
Идентификатор кодека : A_AC3
Продолжительность : 1 ч. 58 м.
Вид битрейта : Постоянный
Битрейт : 384 Кбит/сек
Каналы : 6 каналов
Расположение каналов : Front: L C R, Side: L R, LFE
Частота : 48,0 КГц
Битовая глубина : 16 бит
Метод сжатия : С потерями
Размер потока : 326 Мбайт (7%)
Язык : Russian
Аудио #2
Идентификатор : 3
Формат : AC-3
Формат/Информация : Audio Coding 3
Расширение режима : CM (complete main)
Идентификатор кодека : A_AC3
Продолжительность : 1 ч. 58 м.
Вид битрейта : Постоянный
Битрейт : 384 Кбит/сек
Каналы : 6 каналов
Расположение каналов : Front: L C R, Side: L R, LFE
Частота : 48,0 КГц
Битовая глубина : 16 бит
Метод сжатия : С потерями
Размер потока : 326 Мбайт (7%)
Заголовок : Ю.Живов
Язык : Russian
Аудио #3
Идентификатор : 4
Формат : AC-3
Формат/Информация : Audio Coding 3
Расширение режима : CM (complete main)
Идентификатор кодека : A_AC3
Продолжительность : 1 ч. 58 м.
Вид битрейта : Постоянный
Битрейт : 320 Кбит/сек
Каналы : 6 каналов
Расположение каналов : Front: L C R, Side: L R, LFE
Частота : 48,0 КГц
Битовая глубина : 16 бит
Метод сжатия : С потерями
Размер потока : 272 Мбайт (6%)
Язык : English
Текст #1
Идентификатор : 5
Формат : VobSub
Режим смешивания : zlib
Идентификатор кодека : S_VOBSUB
Идентификатор кодека/Информация : The same subtitle format used on DVDs
Язык : Russian
Текст #2
Идентификатор : 6
Формат : VobSub
Режим смешивания : zlib
Идентификатор кодека : S_VOBSUB
Идентификатор кодека/Информация : The same subtitle format used on DVDs
Язык : English
Меню
00:00:00.000 : en:00:00:00.000
00:06:33.518 : en:00:06:33.518
00:09:28.109 : en:00:09:28.109
00:12:03.431 : en:00:12:03.431
00:15:07.740 : en:00:15:07.740
00:18:15.136 : en:00:18:15.136
00:25:13.887 : en:00:25:13.887
00:29:32.354 : en:00:29:32.354
00:34:15.387 : en:00:34:15.387
00:40:01.899 : en:00:40:01.899
00:43:32.610 : en:00:43:32.610
00:47:51.869 : en:00:47:51.869
00:57:11.303 : en:00:57:11.303
01:00:26.498 : en:01:00:26.498
01:06:05.170 : en:01:06:05.170
01:10:56.586 : en:01:10:56.586
01:17:42.950 : en:01:17:42.950
01:20:41.795 : en:01:20:41.795
01:25:46.183 : en:01:25:46.183
01:32:33.173 : en:01:32:33.173
01:39:58.576 : en:01:39:58.576
01:50:29.623 : en:01:50:29.623

Скриншоты

       

_________________
Человек – это канат, натянутый между животным и сверхчеловеком, – канат над пропастью.
В человеке ценно то, что он мост, а не цель. Фридрих Ницше


Last edited by Delia on 2011-08-26 18:24; edited 1 time in total
Other forum [Profile] [PM]
Display posts from previous:    
Reply to topic

The time now is: Today 20:52

All times are GMT + 3 Hours



You cannot post new topics in this forum
You cannot reply to topics in this forum
You cannot edit your posts in this forum
You cannot delete your posts in this forum
You cannot vote in polls in this forum
You cannot attach files in this forum
You cannot download files in this forum