Today is a free download without charge Download

Discovery: Джек Потрошитель. Первый серийный убийца / Discovery: Jack The Ripper. The First Serial Killer (2006) IPTVRip

Reply to topic
 
Author
Message

Omen ®

Longevity: 7 years 10 months

Posts: 181087

Торрент-статистика

Post 30-Jan-2013 20:10

[Quote]


Информация о фильме
Название: Discovery: Джек Потрошитель. Первый серийный убийца
Оригинальное название: название: Discovery: Jack The Ripper. The First Serial Killer
Год выхода: 2006
Жанр: Документальный, криминал, исторический, реконструкция
Режиссер: Дэн Оливер, Энтони Геффен
О фильме:
Джек-Потрошитель был первым в истории серийным убийцей. Вплоть до наших дней, его ужасное господство над улицами Лондона остается одной из величайших тайн в истории: беспочвенная, не имеющая себе равных жестокость, до сих пор неразрешенные преступления... Начальник Управления Скотланд-Ярда по расследованию преступлений с применением насилия, Лора Ричардс, заново открывает расследование по делу Джека-Потрошителя. Пользуясь достижениями современной криминологии и психоанализа, в сотрудничестве с командой экспертов, Лора Ричардс использует методы 21 века, чтобы понять убийцу 19 века, рассеивая в процессе расследования множество мифов, которыми обросла история Джека-Потрошителя. Результаты этой работы полностью меняют общепринятое представление о Джеке-Потрошителе, и позволяют создать не только его психологический портрет, но и предположить, где он жил и даже как выглядел.
Страна: Великобритания
Продолжительность: 00:50:41
Перевод: Дублированный (SDI Media Group)
РЕЛИЗ
ОТ

Файл
Кодек: XVID
Качество: IPTVRip
Видео: 704 x 528 (1.333) at 25.000 fps/AVI at 1543 Кбит/сек
Звук: MPEG Audio at 128 Кбит/сек/2 канала(ов), 48,0 КГц
MediaInfo

Скрытый текст

Формат : AVI
Формат/Информация : Audio Video Interleave
Размер файла : 559 Мбайт
Продолжительность : 50 м.
Общий поток : 1543 Кбит/сек
Библиотека кодирования : VirtualDub build 32507/release
Видео
Идентификатор : 0
Формат : MPEG-4 Visual
Профиль формата : Advanced [email protected]
Параметр BVOP формата : 2
Параметр QPel формата : Нет
Параметр GMC формата : Без точки перехода
Параметр матрицы формата : Default (H.263)
Режим смешивания : Сжатый битовый поток
Идентификатор кодека : XVID
Идентификатор кодека/Подсказка : XviD
Продолжительность : 50 м.
Битрейт : 1406 Кбит/сек
Ширина : 704 пикс.
Высота : 528 пикс.
Соотношение сторон : 4:3
Частота кадров : 25,000 кадр/сек
Цветовое пространство : YUV
Подвыборка цветности : 4:2:0
Битовая глубина : 8 бит
Тип развёртки : Прогрессивная
Метод сжатия : С потерями
Бит/(Пиксели*Кадры) : 0.151
Размер потока : 510 Мбайт (91%)
Библиотека кодирования : XviD 1.2.1 (UTC 2008-12-04)
Аудио
Идентификатор : 1
Формат : MPEG Audio
Версия формата : Version 1
Профиль формата : Layer 3
Режим : Joint stereo
Расширение режима : MS Stereo
Идентификатор кодека : 55
Идентификатор кодека/Подсказка : MP3
Продолжительность : 50 м.
Вид битрейта : Постоянный
Битрейт : 128 Кбит/сек
Канал(ы) : 2 канала(ов)
Частота : 48,0 КГц
Метод сжатия : С потерями
Размер потока : 46,4 Мбайт (8%)
Выравнивание : Разделение по промежуткам
Продолжительность промежутка : 40 мс. (1,00 видеокадр)
Время предзагрузки промежутка : 500 ms

Скриншоты







Other forum [Profile] [PM]
Display posts from previous:    
Reply to topic

The time now is: Today 07:16

All times are GMT + 3 Hours



You cannot post new topics in this forum
You cannot reply to topics in this forum
You cannot edit your posts in this forum
You cannot delete your posts in this forum
You cannot vote in polls in this forum
You cannot attach files in this forum
You cannot download files in this forum