Today is a free download without charge Download

Discovery: Взрывники / Discovery: The Blasters [1-2 из 2] (2005) SATRip

Reply to topic
 
Author
Message

Omen ®

Longevity: 7 years 10 months

Posts: 181087

Торрент-статистика

Post 30-Jan-2013 20:09

[Quote]


Информация о фильме
Название: Discovery: Взрывники
Оригинальное название: Discovery: The Blasters
Год выхода: 2005
Жанр: Документальный
Режиссер: Дэвид Хамэн
О фильме:
Те, кто зарабатывает на жизнь сносом зданий, бор.тся за максимальное разрушение минимальными усилиями. Эти люди - прекрасные строители, но нельзя научиться обрушивать 9-ти этажный дом. Это секрет мастерства. Подробные методики и ньюансы того, как это делается, в книгах не описываются. И те немногие, кто знает это - никогда не распространяются об этом. Вместе они составляют самое громогласное тайное общество на Земле - взрывники.
Страна: США
Студия: Discovery Networks Europe, Cineflix Productions
Продолжительность: 2 серии ~ 00:45:45
Перевод: Профессиональный (одноголосый)

Файл
Кодек: XVID
Качество: SATRip
Видео: 704 x 464 (1.517) at 25.000 fps/AVI at 1529 Кбит/сек
Звук: MPEG Audio at 128 Кбит/сек/2 канала(ов), 48,0 КГц
MediaInfo

Скрытый текст

Видео
Идентификатор : 0
Формат : MPEG-4 Visual
Профиль формата : Advanced [email protected]
Параметр BVOP формата : 2
Параметр QPel формата : Нет
Параметр GMC формата : Без точки перехода
Параметр матрицы формата : Default (H.263)
Режим смешивания : Сжатый битовый поток
Идентификатор кодека : XVID
Идентификатор кодека/Подсказка : XviD
Продолжительность : 45 м.
Битрейт : 1391 Кбит/сек
Ширина : 704 пикс.
Высота : 464 пикс.
Соотношение сторон : 3:2
Частота кадров : 25,000 кадр/сек
Цветовое пространство : YUV
Подвыборка цветности : 4:2:0
Битовая глубина : 8 бит
Тип развёртки : Прогрессивная
Метод сжатия : С потерями
Бит/(Пиксели*Кадры) : 0.170
Размер потока : 455 Мбайт (91%)
Библиотека кодирования : XviD 1.2.1 (UTC 2008-12-04)
Аудио
Идентификатор : 1
Формат : MPEG Audio
Версия формата : Version 1
Профиль формата : Layer 3
Режим : Joint stereo
Расширение режима : MS Stereo
Идентификатор кодека : 55
Идентификатор кодека/Подсказка : MP3
Продолжительность : 45 м.
Вид битрейта : Постоянный
Битрейт : 128 Кбит/сек
Канал(ы) : 2 канала(ов)
Частота : 48,0 КГц
Метод сжатия : С потерями
Размер потока : 41,9 Мбайт (8%)
Выравнивание : Разделение по промежуткам
Продолжительность промежутка : 40 мс. (1,00 видеокадр)
Время предзагрузки промежутка : 500 ms

Скриншоты







Other forum [Profile] [PM]
Display posts from previous:    
Reply to topic

The time now is: Today 19:05

All times are GMT + 3 Hours



You cannot post new topics in this forum
You cannot reply to topics in this forum
You cannot edit your posts in this forum
You cannot delete your posts in this forum
You cannot vote in polls in this forum
You cannot attach files in this forum
You cannot download files in this forum