Today is a free download without charge Download

Discovery: Прежде чем мы покорили Землю / Discovery: Before We Ruled the Earth [01x01-02] (2003) HDTVRip-AVC 720p

Reply to topic
 
Author
Message

Omen ®

Longevity: 7 years 10 months

Posts: 181087

Торрент-статистика

Post 30-Jan-2013 20:09

[Quote]


Информация о фильме
Название: Discovery: Прежде чем мы покорили Землю
Оригинальное название: Discovery: Before We Ruled the Earth
Год выхода: 2003
Жанр: Документальный
Режиссер: Тим Харди
О фильме:
1700000 лет назад мир был совершенно другим. Огромные звери бродили по земле, наивысшим вызовом было – просто оставаться в живых. Ты или охотник или жертва, убивай или будешь, убит, это был мир ранних гоминидов, расцвет человечества.
Страна: США
Продолжительность: 2 серии ~ 00:45:00
Перевод: Профессиональный (одноголосый)

Файл
Кодек: MPEG4/ISO/AVC
Качество: HDTVRip 720p
Видео: 1280 x 720 (1.778) at 25.000 fps/Matroska at 4602 Кбит/сек
Звук: AC-3 at 224 Кбит/сек/6 канала(ов), 48,0 КГц
MediaInfo

Скрытый текст

Видео
Идентификатор : 1
Формат : AVC
Формат/Информация : Advanced Video Codec
Профиль формата : [email protected]
Параметр CABAC формата : Да
Параметр ReFrames формата : 4 кадры
Параметры GOP формата : N=1
Идентификатор кодека : V_MPEG4/ISO/AVC
Продолжительность : 46 м.
Битрейт : 3903 Кбит/сек
Ширина : 1280 пикс.
Высота : 720 пикс.
Соотношение сторон : 16:9
Частота кадров : 25,000 кадр/сек
Цветовое пространство : YUV
Подвыборка цветности : 4:2:0
Битовая глубина : 8 бит
Тип развёртки : Прогрессивная
Бит/(Пиксели*Кадры) : 0.169
Размер потока : 1,28 Гбайт (85%)
Язык : English
Аудио #1
Идентификатор : 2
Формат : AC-3
Формат/Информация : Audio Coding 3
Расширение режима : CM (complete main)
Идентификатор кодека : A_AC3
Продолжительность : 46 м.
Вид битрейта : Постоянный
Битрейт : 224 Кбит/сек
Канал(ы) : 6 канала(ов)
Расположение каналов : Front: L C R, Side: L R, LFE
Частота : 48,0 КГц
Битовая глубина : 16 бит
Метод сжатия : С потерями
Задержка видео : 20 мс.
Размер потока : 75,3 Мбайт (5%)
Язык : Russian
Аудио #2
Идентификатор : 3
Формат : AC-3
Формат/Информация : Audio Coding 3
Расширение режима : CM (complete main)
Идентификатор кодека : A_AC3
Продолжительность : 46 м.
Вид битрейта : Постоянный
Битрейт : 384 Кбит/сек
Канал(ы) : 6 канала(ов)
Расположение каналов : Front: L C R, Side: L R, LFE
Частота : 48,0 КГц
Битовая глубина : 16 бит
Метод сжатия : С потерями
Задержка видео : 20 мс.
Размер потока : 129 Мбайт (8%)
Язык : English

Скриншоты






Other forum [Profile] [PM]
Display posts from previous:    
Reply to topic

The time now is: Today 13:07

All times are GMT + 3 Hours



You cannot post new topics in this forum
You cannot reply to topics in this forum
You cannot edit your posts in this forum
You cannot delete your posts in this forum
You cannot vote in polls in this forum
You cannot attach files in this forum
You cannot download files in this forum