Today is a free download without charge Download

Discovery: Пивовары / Discovery: Brew Masters [1-3 из 6] (2010) IPTVRip

Reply to topic
 
Author
Message

Omen ®

Longevity: 7 years 10 months

Posts: 181087

Торрент-статистика

Post 30-Jan-2013 20:09

[Quote]


Информация о фильме
Название: Discovery: Пивовары
Оригинальное название: Discovery: Brew Masters
Год выхода: 2010
Жанр: Документальный
О фильме:
Основатель Dogfish Head Brewery Сэм Каладжионе стремится экспериментировать и создавать новые сорта пива. Каждая серия - процесс производства нового, нестандартного пива. Проследите за его изготовлением - от появления идеи до дегустации.
Список серий

Скрытый текст

Серия 1. Пиво Bitches Brew
Серия 2. Чича - древний напиток из Перу.
Серия 03. Кедровое пиво, или От зерна до Стакана (Grain to Glass)
Страна: США
Студия: Discovery Channel
Продолжительность: 3 серии ~ 00:45:00
Перевод: Профессиональный (одноголосый)

Файл
Кодек: XVID
Качество: IPTVRip
Видео: 688 x 384 (1.792) at 25.000 fps/AVI at ~1636 Кбит/сек
Звук: MPEG Audio at 128 Кбит/сек/2 канала(ов), 48,0 КГц
MediaInfo

Скрытый текст

Видео
Идентификатор : 0
Формат : MPEG-4 Visual
Профиль формата : Advanced [email protected]
Параметр BVOP формата : 1
Параметр QPel формата : Нет
Параметр GMC формата : Без точки перехода
Параметр матрицы формата : Выборочная
Режим смешивания : Сжатый битовый поток
Идентификатор кодека : XVID
Идентификатор кодека/Подсказка : XviD
Продолжительность : 43 м.
Битрейт : 1500 Кбит/сек
Ширина : 688 пикс.
Высота : 384 пикс.
Соотношение сторон : 16:9
Частота кадров : 25,000 кадр/сек
Цветовое пространство : YUV
Подвыборка цветности : 4:2:0
Битовая глубина : 8 бит
Тип развёртки : Прогрессивная
Метод сжатия : С потерями
Бит/(Пиксели*Кадры) : 0.227
Размер потока : 471 Мбайт (92%)
Библиотека кодирования : XviD 58
Аудио
Идентификатор : 1
Формат : MPEG Audio
Версия формата : Version 1
Профиль формата : Layer 3
Режим : Joint stereo
Расширение режима : MS Stereo
Идентификатор кодека : 55
Идентификатор кодека/Подсказка : MP3
Продолжительность : 43 м.
Вид битрейта : Постоянный
Битрейт : 128 Кбит/сек
Канал(ы) : 2 канала(ов)
Частота : 48,0 КГц
Метод сжатия : С потерями
Размер потока : 40,2 Мбайт (8%)
Выравнивание : Разделение по промежуткам
Продолжительность промежутка : 250 мс. (6,25 видеокадров)
Время предзагрузки промежутка : 222 ms

Скриншоты






Other forum [Profile] [PM]
Display posts from previous:    
Reply to topic

The time now is: Today 00:49

All times are GMT + 3 Hours



You cannot post new topics in this forum
You cannot reply to topics in this forum
You cannot edit your posts in this forum
You cannot delete your posts in this forum
You cannot vote in polls in this forum
You cannot attach files in this forum
You cannot download files in this forum