Today is a free download without charge Download

Discovery: Страшные взрывы / Discovery: Explosions Gone Wrong (2009) SATRip

Reply to topic
 
Author
Message

Omen ®

Longevity: 7 years 10 months

Posts: 181087

Торрент-статистика

Post 30-Jan-2013 20:09

[Quote]


Информация о фильме
Название: Discovery: Страшные взрывы
Оригинальное название: Discovery: Explosions Gone Wrong
Год выхода: 2009
Жанр: Документальный
Режиссер: Геральд Массимеи
О фильме:
Фильм изобилует документальными кадрами мощных настоящих взрывов начиная с девяностых и по 2008 год. Они наносят удар без предупреждения, разрушая собственность и подвергаясь угрозе жизни. Кинофильм изучает эти мощнейшие взрывы с точки зрения науки, выясняя каковы были их предпосылки, каким образом и отчего они происходили, и когда взрывы становятся катастрофами.
Страна: Великобритания
Студия: Discovery Channel
Продолжительность: 00:43:46
Перевод: Профессиональный (одноголосый)

Файл
Кодек: DivX 5
Качество: SATRip
Видео: 640 x 480 (1.333) at 25.000 fps/AVI at 1599 Кбит/сек
Звук: MPEG Audio at 192 Кбит/сек/2 канала(ов), 48,0 КГц
MediaInfo

Скрытый текст

Видео
Идентификатор : 0
Формат : MPEG-4 Visual
Параметр BVOP формата : Да
Параметр QPel формата : Нет
Параметр GMC формата : Без точки перехода
Параметр матрицы формата : Default (H.263)
Идентификатор кодека : DX50
Идентификатор кодека/Подсказка : DivX 5
Продолжительность : 43 м.
Битрейт : 1397 Кбит/сек
Ширина : 640 пикс.
Высота : 480 пикс.
Соотношение сторон : 4:3
Частота кадров : 25,000 кадр/сек
Цветовое пространство : YUV
Подвыборка цветности : 4:2:0
Битовая глубина : 8 бит
Тип развёртки : Прогрессивная
Метод сжатия : С потерями
Бит/(Пиксели*Кадры) : 0.182
Размер потока : 438 Мбайт (87%)
Библиотека кодирования : DivX 1001
Аудио
Идентификатор : 1
Формат : MPEG Audio
Версия формата : Version 1
Профиль формата : Layer 3
Режим : Joint stereo
Расширение режима : MS Stereo
Идентификатор кодека : 55
Идентификатор кодека/Подсказка : MP3
Продолжительность : 43 м.
Вид битрейта : Постоянный
Битрейт : 192 Кбит/сек
Канал(ы) : 2 канала(ов)
Частота : 48,0 КГц
Метод сжатия : С потерями
Размер потока : 60,1 Мбайт (12%)
Выравнивание : Разделение по промежуткам
Продолжительность промежутка : 40 мс. (1,00 видеокадр)
Время предзагрузки промежутка : 500 ms
Библиотека кодирования : LAME3.96

Скриншоты







Other forum [Profile] [PM]
Display posts from previous:    
Reply to topic

The time now is: Today 06:52

All times are GMT + 3 Hours



You cannot post new topics in this forum
You cannot reply to topics in this forum
You cannot edit your posts in this forum
You cannot delete your posts in this forum
You cannot vote in polls in this forum
You cannot attach files in this forum
You cannot download files in this forum