Today is a free download without charge Download

Discovery: Последний полёт шаттла / Discovery: Last Flight Of The Space Shuttle (2011) HDTVRip-AVC 720p

Reply to topic
 
Author
Message

Omen ®

Longevity: 7 years 10 months

Posts: 181087

Торрент-статистика

Post 30-Jan-2013 20:07

[Quote]


Информация о фильме
Название: Discovery: Последний полёт шаттла
Оригинальное название: Discovery: Last Flight Of The Space Shuttle
Год выхода: 2011
Жанр: Документальный
В ролях: Учёные
О фильме:
За три десятилетия с момента своего первого запуска в 1981 году, шаттл стал знаковым символом технологического господства Америки. За это время были переписаны правила космических путешествий. Это были многоразовые транспортные средства, которые могли в качестве ракеты вывести людей и грузы на орбиту Земли, а затем приземлиться на взлетно-посадочную полосу как самолет. Но две катастрофы в 1986 и 2003 году с трагической гибелью 14 астронавтов шокировали мир и ознаменовали конец программы и эпохи. Однако, его наследие было экстраординарным. После июля 2011 года, когда шаттл совершил свой последний полет, в первый раз, более чем за половину века, США больше не состоянии доставить человека в космос.
Страна: США
Студия: Windfall Films for Science, Discovery Communications, LLC
Продолжительность: 00:43:47
Перевод: Профессиональный (одноголосый)

Файл
Кодек: MPEG4/ISO/AVC
Качество: HDTVRip 720p
Видео: 1280 x 720 (1.778) at 25.000 fps/Matroska at 4770 Кбит/сек
Звук: AC-3 at 384 Кбит/сек/6 канала(ов), 48,0 КГц
MediaInfo

Скрытый текст

Видео
Идентификатор : 1
Формат : AVC
Формат/Информация : Advanced Video Codec
Профиль формата : [email protected]
Параметр CABAC формата : Да
Параметр ReFrames формата : 3 кадры
Режим смешивания : Header stripping
Идентификатор кодека : V_MPEG4/ISO/AVC
Продолжительность : 43 м.
Вид битрейта : Переменный
Битрейт : 4000 Кбит/сек
Максимальный битрейт : 14,0 Мбит/сек
Ширина : 1280 пикс.
Высота : 720 пикс.
Соотношение сторон : 16:9
Частота кадров : 25,000 кадр/сек
Цветовое пространство : YUV
Подвыборка цветности : 4:2:0
Битовая глубина : 8 бит
Тип развёртки : Прогрессивная
Бит/(Пиксели*Кадры) : 0.174
Размер потока : 1,19 Гбайт (82%)
Библиотека кодирования : x264 core 116 r2074 2641b9e
Аудио #1
Идентификатор : 2
Формат : AC-3
Формат/Информация : Audio Coding 3
Расширение режима : CM (complete main)
Идентификатор кодека : A_AC3
Продолжительность : 43 м.
Вид битрейта : Постоянный
Битрейт : 384 Кбит/сек
Канал(ы) : 6 канала(ов)
Расположение каналов : Front: L C R, Side: L R, LFE
Частота : 48,0 КГц
Битовая глубина : 16 бит
Метод сжатия : С потерями
Размер потока : 120 Мбайт (8%)
Заголовок : 5.1 AC3 Clean effects
Язык : Russian
Аудио #2
Идентификатор : 3
Формат : AC-3
Формат/Информация : Audio Coding 3
Расширение режима : CM (complete main)
Идентификатор кодека : A_AC3
Продолжительность : 43 м.
Вид битрейта : Постоянный
Битрейт : 384 Кбит/сек
Канал(ы) : 6 канала(ов)
Расположение каналов : Front: L C R, Side: L R, LFE
Частота : 48,0 КГц
Битовая глубина : 16 бит
Метод сжатия : С потерями
Размер потока : 120 Мбайт (8%)
Заголовок : 5.1 AC3 Clean effects
Язык : English

Скриншоты






Other forum [Profile] [PM]
Display posts from previous:    
Reply to topic

The time now is: Today 06:07

All times are GMT + 3 Hours



You cannot post new topics in this forum
You cannot reply to topics in this forum
You cannot edit your posts in this forum
You cannot delete your posts in this forum
You cannot vote in polls in this forum
You cannot attach files in this forum
You cannot download files in this forum