Today is a free download without charge Download

Ночная смена / Graveyard Shift (Ральф С. Синглтон / Ralph S. Singleton) [1990, США, Япония, Ужасы, Мистика, WEB-DL 720p] AVO(Либергал) + AVO(Прямостанов) + MVO + Sub Eng + Original Eng

Reply to topic
 
Author
Message

Omen ®

Longevity: 8 years 5 months

Posts: 181087

Торрент-статистика

Post 30-Jan-2013 16:48

[Quote]

Ночная смена / Graveyard Shift
Страна: США, Япония
Студия: Paramount Pictures & Graveyard Productions
Жанр: Ужасы, Мистика
Год выпуска: 1990
Продолжительность: 01:26:17
Перевод 1: Авторский (одноголосый закадровый) Григорий Либергал
Перевод 2: Авторский (одноголосый закадровый) Павел Прямостанов
Перевод 3: Профессиональный (многоголосый закадровый) NORD videofilm
Cубтитры: английские
Оригинальная аудиодорожка: английский
Режиссер: Ральф С. Синглтон / Ralph S. Singleton
В ролях: Дэвид Эндрюс /David Andrews, Келли Вульф /Kelly Wolf, Стефен Махт /Stephen Macht/, Эндрю Дивофф /Andrew Divoff/, Вик Полицос /Vic Polizos/, Брэд Дуриф /Brad Dourif/, Роберт Алан Бойт /Robert Alan Beuth/, Илона Марголис /Ilona Margolis/, Джимми Вудард /Jimmy Woodard/, Джонатан Эмерсон /Jonathan Emerson
Описание: Сюжет фильма прост. Здесь есть и драма, и ужасы, и симпатия и ненависть, обида и разочарования. Но это не «мылодрама» с бесконечными диалогами, «слезами и соплями». Просто каждый герой фильма имеет свою историю, которая показывается или раскрывается в течении фильма. Между прочим, если постараться, можно о каждом снять отдельный фильм, например:
John Hall — кто он такой? Почему он сменил столько професий?
Jane Wisconsky - взлет и падение в личных отношениях с начальником фабрики (Warwick).
Warwick — его личная жизнь будет побогаче всех вместе взятых. Каким образом это чурбан стал начальником фабрики? Зачем он носит при себе нож? Может кого-то боится?
Tucker Cleveland - почему выбрал именно профессию экстерминатора? Можно поподробней об историях с собакой-крысоловом. А что за методы он использует в своей работе? Да и разговор в кабинете начальника был какой-то интересный. Видать, непростой наш парень, Tucker Cleveland.
Фабрика — что ты в себе хранишь? Чем ты была в начале? Кто были твои владельцы?
Понравился антураж в начале (заброшенное кладбище в воде) и в конце (подподвальное помещение). Ну а так, средненький ужастик. Для кого-то вульгарный, для кого-то нормальный. Смотрите трейлер и решайте, смотреть или нет. Во всяком случае фильм интересней получился, на мой взгляд, чем книга.
--------------------------------------------------
Оператор: Питер Стайн (Peter Stein)
Продюсер: Уильям Дж. Данн /William J. Dunn/, Джоан В. Синглтон (Joan Singleton)
Монтажер: Джим Гросс /Jim Gross/
Композитор: Брайан Бэнкс /Brian Banks/
Переводчик: Григорий Либергал, Павел Прямостанов
Художник: Гари Уисснер /Gary Wissner/
Сценарист: Джон Эспозито /John Esposito/
По произведению: Стивен Кинг /Stephen King
--------------------------------------------------
КИНОПОИСК. RU
РЕЙТИНГ 5.105 оценки: 619
4,3/10
--------------------------------------------------
Доп. информация: Рип от protoyu. За авторские переводы спасмбо Yanmax. Многоголосый перевод отсюда - DVDRip
СЭМПЛ
Тип релиза: WEB-DL 720p
Контейнер: MKV
Видео: 1280x720; 23.976 fps; ~ 3 981 Kbps; 0.180 Bits/Pixel
Аудио 1: Russian - 48 kHz, AC3, 2/0 Front: L R, ~ 192 kbps - Григорий Либергал
Аудио 2: Russian - 48 kHz, AC3, 2/0 Front: L R, ~ 192 kbps - Павел Прямостанов
Аудио 3: Russian - 48 kHz, AC3, 2/0 Front: L R, ~ 192 kbps - MVO
Аудио 4: English - 48 kHz, AC3, Front: L C R, Side: L R, LFE, ~ 384 kbps - Original
Формат субтитров: softsub (SSA/ASS)

MediaInfo

General
Complete name : F:\EXCLUZIVE=19\НОЧНАЯ СМЕНА [Graveyard Shift][1990]\GRAVEYARD SHIFT [Ralph S. Singleton][1990]\Graveyard.Shift.1990.720p.WEB-DL.H264-WEBiOS.mkv
Format : Matroska
File size : 3.04 GiB
Duration : 1h 26mn
Overall bit rate : 5 041 Kbps
Encoded date : UTC 2013-01-29 23:21:24
Writing application : mkvmerge v3.3.0 ('Language') built on Mar 24 2010 14:59:24
Writing library : libebml v0.8.0 + libmatroska v0.9.0
Video
ID : 1
Format : AVC
Format/Info : Advanced Video Codec
Format profile : [email protected]
Format settings, CABAC : No
Format settings, ReFrames : 2 frames
Format settings, GOP : M=2, N=31
Muxing mode : Container [email protected]
Codec ID : V_MPEG4/ISO/AVC
Duration : 1h 26mn
Bit rate : 3 981 Kbps
Width : 1 280 pixels
Height : 720 pixels
Display aspect ratio : 16:9
Frame rate : 23.976 fps
Color space : YUV
Chroma subsampling : 4:2:0
Bit depth : 8 bits
Scan type : Progressive
Bits/(Pixel*Frame) : 0.180
Stream size : 2.40 GiB (79%)
Title : Graveyard.Shift.1990.
Language : English
Color primaries : BT.709-5, BT.1361, IEC 61966-2-4, SMPTE RP177
Transfer characteristics : BT.709-5, BT.1361
Matrix coefficients : BT.709-5, BT.1361, IEC 61966-2-4 709, SMPTE RP177
Audio #1
ID : 2
Format : AC-3
Format/Info : Audio Coding 3
Mode extension : CM (complete main)
Codec ID : A_AC3
Duration : 1h 26mn
Bit rate mode : Constant
Bit rate : 192 Kbps
Channel(s) : 2 channels
Channel positions : Front: L R
Sampling rate : 48.0 KHz
Stream size : 119 MiB (4%)
Title : AVO - ЛИБЕРГАЛ AC3 192k
Language : Russian
Audio #2
ID : 3
Format : AC-3
Format/Info : Audio Coding 3
Mode extension : CM (complete main)
Codec ID : A_AC3
Duration : 1h 26mn
Bit rate mode : Constant
Bit rate : 192 Kbps
Channel(s) : 2 channels
Channel positions : Front: L R
Sampling rate : 48.0 KHz
Stream size : 119 MiB (4%)
Title : AVO - ПРЯМОСТАНОВ AC3 192k
Language : Russian
Audio #3
ID : 4
Format : AC-3
Format/Info : Audio Coding 3
Mode extension : CM (complete main)
Codec ID : A_AC3
Duration : 1h 26mn
Bit rate mode : Constant
Bit rate : 192 Kbps
Channel(s) : 2 channels
Channel positions : Front: L R
Sampling rate : 48.0 KHz
Stream size : 119 MiB (4%)
Title : MVO - AC3 192k
Language : Russian
Audio #4
ID : 5
Format : AC-3
Format/Info : Audio Coding 3
Mode extension : CM (complete main)
Codec ID : A_AC3
Duration : 1h 26mn
Bit rate mode : Constant
Bit rate : 384 Kbps
Channel(s) : 6 channels
Channel positions : Front: L C R, Side: L R, LFE
Sampling rate : 48.0 KHz
Stream size : 237 MiB (8%)
Title : Original - AC3 5.1 384 kbs
Language : English
Text
ID : 6
Format : UTF-8
Codec ID : S_TEXT/UTF8
Codec ID/Info : UTF-8 Plain Text
Language : English
Menu
00:00:00.000 : en:In The Mill
00:08:28.000 : en:A Fresh Start
00:16:44.000 : en:The Exterminator
00:23:31.000 : en:Night Shift
00:28:13.000 : en:Commander of The Rat People
00:37:02.000 : en:Double Pay
00:45:36.000 : en:Clean Up Crew
00:53:13.000 : en:One Additional Service
01:01:15.000 : en:Breakdown
01:11:32.000 : en:The Inner Lair
01:17:45.000 : en:Escape Attempt

Скриншоты

, ,
, ,
, ,
Other forum [Profile] [PM]
Display posts from previous:    
Reply to topic

The time now is: Today 10:53

All times are GMT + 3 Hours



You cannot post new topics in this forum
You cannot reply to topics in this forum
You cannot edit your posts in this forum
You cannot delete your posts in this forum
You cannot vote in polls in this forum
You cannot attach files in this forum
You cannot download files in this forum