Today is a free download without charge Download

Ночные ласточки / Серии: 1-4 из 8 (Михаил Кабанов) [2012, Боевик, мелодрама, HDTVRip 720p]

Reply to topic
 
Author
Message

Omen ®

Longevity: 8 years 11 months

Posts: 181086

Торрент-статистика

Post 30-Jan-2013 12:44

[Quote]

Ночные ласточки -Год выпуска: 2012
Производство: Россия, Star Media
Жанр: Боевик, мелодрама
Продолжительность: 00:45:00 серия
Режиссёр: Алексей Рудаков-В ролях: Татьяна Арнтгольц, Елизавета Нилова, Екатерина Олькина, Олеся Фаттахова, Мария Пирогова, Елена Куликова, Денис Никифоров, Михаил Евланов, Евгений Ганелин, Игорь Савочкин, Анатолий Пашинин, Дмитрий Мазуров, Олег Гераськин, Владимир Капустин, Александр Новик, Константин Спасский, Наталья Людскова, Анатолий Завьялов, Алексей Медведев, Максим Студеновский, Евгения Бурдихина, Лариса Маркина, Константин Шелягин, Дмитрий Лавров, Елисей Тарасенко, Надежда Евтехова, Игорь Теплов, Александра Мареева, Юлия Ковалева, Виктор Хориняк, Виктор Либеров, Елена Медведева, Валерий Афанасьев, Константин Демидов.-Описание: Сообщение о войне разносилось с огромной скоростью. Эта страшная весть не оставляла равнодушными никого. Мужчины уходили на фронт тысячами, но враг очень быстро наступал и с каждым днём оккупировал всё больше и больше земли нашей родины. На плечи женщин легла непосильная ноша - это не только работа в госпиталях и фабриках, а и на заводах у тяжёлых станков, также во всем помогали и дети. Вначале октября 1941 года был подписан Сталиным приказ о сформировании женских авиационных полков. Мужественные девушки наравне с мужчинами наносили сокрушительные удары по врагу. не жалея сил, падая с ног то усталости на ночных бомбардировщиках "ПО-2" взлетая по первому приказу, они разрушали переправы и оборонительные сооружения, уничтожали технику, доставляли данные о скоплении фашистских войск. Порой женщины хитростью и смекалкой помогали в тяжелых ситуациях. Фашисты стали называть летчиц "Ночными ласточками", а мужчины боевые товарищи испытывали гордость и уважение за настоящих русских женщин. 46-й Гвардейский бомбардировочный Таманский полк прошел боевой путь от Сальских степей и Дона до фашистской Германии. Полк совершил 24 тысячи боевых вылетов, в нем было 25 женщин Героев Советского Союза, многие посмертно.-Доп.информация:
Любая реклама ОТСУТСТВУЕТ!-Сэмпл-Качество: HDTVRip 720p
Формат: MP4
Видео кодек: H.264
Аудио кодек: AC3
Видео: 1280x720, 25 fps, x264 AVC ~3000 kbps avg, 0.13 bit/pixel
Аудио1: 48 kHz, MPEG Layer 3, 2 ch, ~192.00 kbps avg
Аудио2: 48 kHz, Audio Coding 3, 2 ch, ~256.00 kbps avg

MI

ОбщееПолное имя : D:\Раздачи\Ночные ласточки 2012_HDTVRip(720p)\Ночные ласточки 01.2012_HDTVRip(720p).mp4Формат : MPEG-4Профиль формата : Base MediaИдентификатор кодека : isomРазмер файла : 1,01 ГбайтПродолжительность : 41 м.Общий поток : 3494 Кбит/секПрограмма кодирования : XviD4PSP 6.0 / 54.29.105
ВидеоИдентификатор : 1Формат : AVCФормат/Информация : Advanced Video CodecПрофиль формата : [email protected]Параметр CABAC формата : ДаПараметр ReFrames формата : 3 кадраИдентификатор кодека : avc1Идентификатор кодека/Информация : Advanced Video CodingПродолжительность : 41 м.Битрейт : 3000 Кбит/секШирина : 1280 пикселейВысота : 720 пикселейСоотношение сторон : 16:9Режим частоты кадров : ПостоянныйЧастота кадров : 25,000 кадров/секЦветовое пространство : YUVСубдискретизация насыщенности : 4:2:0Битовая глубина : 8 битТип развёртки : ПрогрессивнаяБит/(Пиксели*Кадры) : 0.130Размер потока : 895 Мбайт (87%)Библиотека кодирования : x264 core 128 r2216M 198a7eaНастройки программы : cabac=1 / ref=3 / deblock=1:0:0 / analyse=0x3:0x133 / me=hex / subme=7 / psy=0 / mixed_ref=1 / me_range=16 / chroma_me=1 / trellis=1 / 8x8dct=1 / cqm=0 / deadzone=0,0 / fast_pskip=1 / chroma_qp_offset=0 / threads=4 / lookahead_threads=1 / sliced_threads=0 / nr=0 / decimate=1 / interlaced=0 / bluray_compat=0 / constrained_intra=0 / bframes=3 / b_pyramid=1 / b_adapt=2 / b_bias=0 / direct=3 / weightb=1 / open_gop=0 / weightp=2 / keyint=250 / keyint_min=25 / scenecut=40 / intra_refresh=0 / rc_lookahead=40 / rc=abr / mbtree=1 / bitrate=3000 / ratetol=1.0 / qcomp=0.60 / qpmin=10 / qpmax=51 / qpstep=4 / vbv_maxrate=31250 / vbv_bufsize=31250 / nal_hrd=none / ip_ratio=1.40 / aq=1:0.00
Аудио #1Идентификатор : 2Формат : MPEG AudioВерсия формата : Version 1Профиль формата : Layer 3Режим : Joint stereoИдентификатор кодека : 6BПродолжительность : 41 м.Duration_LastFrame : -1 мс.Вид битрейта : ПостоянныйБитрейт : 192 Кбит/секКаналы : 2 каналаЧастота : 48,0 КГцМетод сжатия : С потерямиЗадержка видео : 80 мс.Размер потока : 56,6 Мбайт (5%)Язык : Russian
Аудио #2Идентификатор : 3Формат : AC-3Формат/Информация : Audio Coding 3Расширение режима : CM (complete main)Параметр Endianness формата : BigИдентификатор кодека : ac-3Продолжительность : 41 м.Вид битрейта : ПостоянныйБитрейт : 256 Кбит/секКаналы : 2 каналаРасположение каналов : Front: L RЧастота : 48,0 КГцБитовая глубина : 16 битМетод сжатия : С потерямиЗадержка видео : 80 мс.Размер потока : 75,4 Мбайт (7%)Язык : English

Скриншоты

Внимание! Раздача ведётся путём добавления новых серий. Описание обновления торрента:

Внимание! Раздача ведётся путём добавления новых серий; при каждом добавлении создётся новый торрент. Чтобы начать докачку новой серии, пользователям необходимо сделать следующее:
(1) остановить скачивание,
(2) удалить старый торрент у себя из клиента (старые серии удалять не надо),
(3) скачать новый торрент и запустить его у себя в клиенте вместо старого, при этом указать клиенту путь в старую папку куда и должно происходить скачивание новых серий.
Ваш клиент при этом должен произвести хеширование (проверку) старой папки (если не производит сам - помогите ему сделать это), и будет докачивать только те серии которых у вас ещё нет. Старые серии при этом не удаляются, а продолжают раздаваться!
Eсли вы уже удалили старые серии, то предотвратить повторную закачку старых серий можно, отжав галочку в соответсвующих местах при запуске нового торрента. По возможности, желательно не удалять старые серии как можно дольше чтобы релизёр не столько продолжал раздавать старые серии, а смог сконцентрироваться на новых
Other forum [Profile] [PM]
Similar theme
Forum Topic Author Torrent Replies Last Post
./templates/default/images/folder_dl.gif Russian Rock (Rock) Ночные Снайперы - Дискография (1993-2009) [MP3|320 kbps] SCORPION
0 | 1

1 | 3415

0

2011-02-24 21:25
Paullo Latest
Display posts from previous:    
Reply to topic

The time now is: Today 13:32

All times are GMT + 3 Hours



You cannot post new topics in this forum
You cannot reply to topics in this forum
You cannot edit your posts in this forum
You cannot delete your posts in this forum
You cannot vote in polls in this forum
You cannot attach files in this forum
You cannot download files in this forum