Today is a free download without charge Download

Кундун / Kundun (Мартин Скорсезе / Martin Scorsese) [1997, США, драма, BDRemux 1080p] MVO (Пирамида Хоум Видео) + DVO (НТВ+ (пер. Ю.Сербин)) + AVO (авт. Ю.Сербин) + Sub Rus, Eng + Original Eng

Reply to topic
 
Author
Message

Omen ®

Longevity: 8 years 5 months

Posts: 181087

Торрент-статистика

Post 30-Jan-2013 12:44

[Quote]

КУНДУН / KUNDUN
Удивительная история четырнадцатого Далай-ламы
Страна: США
Студия: De Fina-Cappa, Dune Films, Refuge Productions Inc., Touchstone Pictures
Жанр: драма
Год выпуска: 1997
Продолжительность: 02:14:25
Перевод 1: Профессиональный (многоголосый закадровый) Пирамида Хоум Видео
Перевод 2: Профессиональный (двухголосый закадровый) НТВ+ (пер. Ю.Сербин)
Перевод 3: Авторский (одноголосый закадровый) авт. Ю.Сербин
Cубтитры: русские , английские
Оригинальная аудиодорожка: английский
Режиссер: Мартин Скорсезе / Martin Scorsese
В ролях: Тензин Тхутхоб Царонг, Гьюрме Тетхонг, Тулку Джамаянг Кунга Тензин, Тензин Еши Пайчанг, Тенчо Гьялпо, Тензин Топьяр, Цеванг Мигьюр Кангсар, Тензин Лодой, Геше Еши Гьяцо, Лосанг Гятсо, Сонам Фунтсок, Цзямъян Тензин, Таши Дхондуп, Джампа Лунгток, Карма Ванчук, Ким Чан, Генри Юк, Роберт Лин, Зальден Кунга, Джон Вонг-Описание:
Реалистичное повествование о жизни и трагической судьбе четырнадцатого Далай-Ламы, одного из величайших религиозных деятелей нашей эпохи и духовного наставника буддистов всего мира. Хроника его детства и юности, наполненной тревогами за будущее древней нации, решительными попытками отстоять право Тибета на политическую и религиозную независимость.
После китайского вторжения Далай-Лама был вынужден бежать в Индию, где он и по сей день пребывает в изгнании, призывая мировое сообщество обратить внимание на беды и страдания своего народа. Это история об удивительном юноше, наделенном многовековой мудростью и знаниями, чья несгибаемая воля и вера являются достойным примером для всех, кому дороги свобода и справедливость.
Тибетцы называют Далай-ламу Кундун, что означает Присутствие. Он был вынужден покинуть родину, когда коммунистический Китай вторгся в страну и установил режим репрессий для мирного народа Тибета. Далай-лама бежал в Индию в 1959 г. и с тех пор живет в изгнании в Дхарамсале.

Знаете ли вы что...

- Режиссер Мартин Скорсезе, писатель Мелисса Матисон и ее тогдашний муж Харрисон Форд были добавлены в список из более чем 50 человек, которым запрещен въезд в Тибет из-за этого фильма.
- Съемка в Тибете не была возможна, Марокко был использован взамен.
- Задействовались только непрофессиональные актеры.
- Далай-ламу и его семью сыграли родственники Далай-ламы, живущие сейчас в лагерях беженцев в Дхарамсале, а также за рубежом. Тензин Тхутхоб Царонг, который сыграл взрослого Далай-ламу, является ему внучатым племянником.
- Мартин Скорсезе посвятил этот фильм своей матери Кэтрин Скорсезе, которая умерла во время подготовки к производству фильма, потому что "Далай-лама представляет безусловную любовь, а мне моя мать была самым близким человеком с такой любовью".
- Этот фильм Мартина Скорсезе Первый заработал PG-13 рейтинг от MPAA за насильственные изображения (Нагота - нет. Насилие - умеренно нарушая сцены. Профанация - нет. Наркотики - кратко показано вдыхание опиума. Пугающие сцены - умеренно нарушая сцены).

Места съемок фильма

Айт-Бен-Хадду, Орцазате, Марокко
Atlas Corporation Studios, Орцазате, Марокко (Студия)
Атласские горы, Марокко
Айт-Бен-Хадду, Марокко
Британская Колумбия, Канада
Касабланка, Марокко (Штаб-квартира Мао Цзэдуна)
Айдахо, США
Имлил, Марракеш, Марокко
Касба де Тоубкаль, Имлил, Марракеш, Марокко (Монастырь Дункар)
Марракеш, Марокко
Марокко
Орцазате, Марокко
Тимлуджайт, Марокко (Родное село Далай-ламы)

Нестыковки

Непрерывность:
- Когда Далай-лама бежит из Тибета, под ногтем виден кровяной пузырик в съемках крупным планом при сильных выстрелах. Его там нет в съемках, менее насыщенных стрельбой, хотя палец виден ясно.
- Когда мальчик проходит проверку и дело доходит до выбора между двумя чашами, то поднимает чашу правой рукой, исследует ее, а когда ставит на стол - чаша оказывается в левой руке.
Фактические ошибки:
- В целях повествования сжат график времени. Китайское вторжение произошло в 1950 году, Далай-лама навестил председателя Мао в Пекине в 1954 году, и он в конечном счете бежал из Тибета в 1959 году.
Выявление ошибок:
- Некоторые марширующие китайские солдаты с изумленными взглядами - очевидно, кавказцы.
- Когда Кундуну снится, что он окружен монахами, убитыми китайцами, то у "мертвого" монаха, самого близкого к нему, заметно движение век.
Меню: Нет, только переключение по разделам
Сэмпл: http://multi-up.com/824560
Тип релиза: BDRemux 1080p
Контейнер: MKV
Видео: AVC, 1920x1080, VBR, 16:9, 27.1 Mbps, 23.976 fps
Аудио 1: Русский, AC3, 6 ch, 48 kHz, 448 kbps
Аудио 2: Русский, AC3, 2 ch, 48 kHz, 192 kbps
Аудио 3: Русский, DTS, 6 ch, 48 kHz, 1509 kbps
Аудио 4: English, DTS, 6 ch, 48 kHz, 1509 kbps
Формат субтитров: softsub (SRT)

MediaInfo

General
General
Unique ID : 193227298179024089351990036382738493197 (0x915E3955ADBBACDBA5B5B36EF3932F0D)
Format : Matroska
Format version : Version 4 / Version 2
File size : 29.4 GiB
Duration : 2h 14mn
Overall bit rate mode : Variable
Overall bit rate : 31.4 Mbps
Encoded date : UTC 2013-01-30 02:17:18
Writing application : mkvmerge v6.0.0 ('Coming Up For Air') built on Jan 20 2013 09:52:00
Writing library : libebml v1.3.0 + libmatroska v1.4.0
Video
ID : 1
Format : AVC
Format/Info : Advanced Video Codec
Format profile : [email protected]
Format settings, CABAC : Yes
Format settings, ReFrames : 2 frames
Codec ID : V_MPEG4/ISO/AVC
Duration : 2h 14mn
Bit rate mode : Variable
Bit rate : 27.1 Mbps
Width : 1 920 pixels
Height : 1 080 pixels
Display aspect ratio : 16:9
Frame rate mode : Constant
Frame rate : 23.976 fps
Color space : YUV
Chroma subsampling : 4:2:0
Bit depth : 8 bits
Scan type : Progressive
Bits/(Pixel*Frame) : 0.545
Stream size : 25.4 GiB (86%)
Title : Кундун / Kundun (blu-ray)
Default : Yes
Forced : No
Audio #1
ID : 2
Format : AC-3
Format/Info : Audio Coding 3
Mode extension : CM (complete main)
Format settings, Endianness : Big
Codec ID : A_AC3
Duration : 2h 14mn
Bit rate mode : Constant
Bit rate : 448 Kbps
Channel(s) : 6 channels
Channel positions : Front: L C R, Side: L R, LFE
Sampling rate : 48.0 KHz
Bit depth : 16 bits
Compression mode : Lossy
Stream size : 431 MiB (1%)
Title : Многоголосый закадровый, Пирамида Хоум Видео, AC3 5.1 448 Kbps
Language : Russian
Default : Yes
Forced : No
Audio #2
ID : 3
Format : AC-3
Format/Info : Audio Coding 3
Mode extension : CM (complete main)
Format settings, Endianness : Big
Codec ID : A_AC3
Duration : 2h 14mn
Bit rate mode : Constant
Bit rate : 192 Kbps
Channel(s) : 2 channels
Channel positions : Front: L R
Sampling rate : 48.0 KHz
Bit depth : 16 bits
Compression mode : Lossy
Stream size : 185 MiB (1%)
Title : Двухголосый закадровый, НТВ+ (пер. Ю.Сербин), AC3 2.0 192 Kbps
Language : Russian
Default : No
Forced : No
Audio #3
ID : 4
Format : DTS
Format/Info : Digital Theater Systems
Mode : 16
Format settings, Endianness : Big
Codec ID : A_DTS
Duration : 2h 14mn
Bit rate mode : Constant
Bit rate : 1 509 Kbps
Channel(s) : 6 channels
Channel positions : Front: L C R, Side: L R, LFE
Sampling rate : 48.0 KHz
Bit depth : 16 bits
Compression mode : Lossy
Delay relative to video : 11ms
Stream size : 1.42 GiB (5%)
Title : Одноголосый закадровый, авт. Ю.Сербин, DTS 5.1 1536 kbps
Language : Russian
Default : No
Forced : No
Audio #4
ID : 5
Format : DTS
Format/Info : Digital Theater Systems
Mode : 16
Format settings, Endianness : Big
Codec ID : A_DTS
Duration : 2h 14mn
Bit rate mode : Constant
Bit rate : 1 509 Kbps
Channel(s) : 6 channels
Channel positions : Front: L C R, Side: L R, LFE
Sampling rate : 48.0 KHz
Bit depth : 16 bits
Compression mode : Lossy
Delay relative to video : 11ms
Stream size : 1.42 GiB (5%)
Title : Английский оригинал, DTS 5.1 1536 kbps
Language : English
Default : No
Forced : No
Text #1
ID : 6
Format : UTF-8
Codec ID : S_TEXT/UTF8
Codec ID/Info : UTF-8 Plain Text
Language : Russian
Default : No
Forced : No
Text #2
ID : 7
Format : UTF-8
Codec ID : S_TEXT/UTF8
Codec ID/Info : UTF-8 Plain Text
Language : English
Default : No
Forced : No
Menu
00:00:00.000 : en:Chapter 01
00:07:19.814 : en:Chapter 02
00:17:23.876 : en:Chapter 03
00:25:01.333 : en:Chapter 04
00:32:53.596 : en:Chapter 05
00:39:37.625 : en:Chapter 06
00:48:05.257 : en:Chapter 07
00:57:11.344 : en:Chapter 08
01:06:48.421 : en:Chapter 09
01:16:08.522 : en:Chapter 10
01:23:20.578 : en:Chapter 11
01:32:48.145 : en:Chapter 12
01:39:11.612 : en:Chapter 13
01:48:29.669 : en:Chapter 14
01:56:55.466 : en:Chapter 15
02:08:52.099 : en:Chapter 16
-
Other forum [Profile] [PM]
Display posts from previous:    
Reply to topic

The time now is: Today 02:12

All times are GMT + 3 Hours



You cannot post new topics in this forum
You cannot reply to topics in this forum
You cannot edit your posts in this forum
You cannot delete your posts in this forum
You cannot vote in polls in this forum
You cannot attach files in this forum
You cannot download files in this forum