Today is a free download without charge Download

Шальные деньги: Стокгольмский нуар / Snabba cash II (Бабак Наджафи / Babak Najafi) [2012, Швеция, Триллер, Драма, Криминал, BDRip 1080p] DVO + Original Swe

Reply to topic
 
Author
Message

Omen ®

Longevity: 8 years 5 months

Posts: 181087

Торрент-статистика

Post 30-Jan-2013 08:40

[Quote]

Шальные деньги: Стокгольмский нуар / Snabba cash II
Страна: Швеция
Студия: Film i Vast, Tre Vanner Produktion AB
Жанр: Триллер, Драма, Криминал
Год выпуска: 2012
Продолжительность: 01:39:47
Перевод: Любительский (двухголосый закадровый)
Cубтитры: нет
Оригинальная аудиодорожка: шведский
Режиссер: Бабак Наджафи / Babak Najafi
В ролях: Юэль Киннаман, Матиас Падин, Драгомир Мрсич, Фарес Фарес, Мадлен Мартин, Деян Чукич, Джоэль Спира, Лиза Хенни, Рикардо Марселионо Аранеда Морено, Луис Сифунтес, Анника Рюберг Виттембури
Описание: После трех лет заключения Ю. В. получает первую «увольнительную», но обстоятельства складываются так, что вернуться за решетку он уже не может… Скрывающийся от правосудия чилиец Хорхе планирует мега-сделку с кокаином, которая должна обогатить его раз и на всегда, но жизнь вносит жестокие коррективы в его план… Сумка с принадлежащими югославской мафии 10 миллионами крон путешествует по Стокгольму, переходя из рук в руки и оставляя за собой кровавый след…

Сэмпл качается здесь
Тип релиза: BDRip 1080p
Контейнер: MKV
Видео: MPEG-4 AVC/H.264, битрейт видео : ~10.5 Мбит/с, размер кадра: 1920x816, 24.000 fps
Аудио 1: Русский, AC3, 48 kHz, 5.1, 448 kbps - Двухгоголосый закадровый, любительский
Аудио 2: Шведский, DTS, 48 kHz, 5.1, 1536 kbps

Рецензия

Никого не жалко…
В 2010 году Даниэль Эспиноза снял первую часть фильма «Шальные деньги» по одноименному роману Йенса Лапидуса и фактически угробил интригу, на которой держался весь роман и которая заключалась в загадочной истории исчезновения сестры главного героя. Сведя детективный сюжет на нет, Эспиноза снял обычное кино о бандитских разборках нехороших эмигрантов в благополучном Стокгольме. Оставалась надежда, что к этой истории вернутся в продолжении фильма, однако принявший режиссерскую эстафету Бабак Наджафи пошел тем же путем. И «Стокгольмский нуар» представляет собой не что иное, как разборки между теми, кто выжил в прошлой части. Однако, герои парадоксально меняются ролями. Те, кто раньше были верными друзьями, подставляют и предают друг друга за несколько тысяч крон, а заклятые враги — Ю. В. (Юхан Вестлунд) и едва не убитый им и ставший по его вине инвалидом Мрадо становятся лучшими друзьями.
Действие развивается три года спустя после событий, описанных в первом фильме. Вышедший из тюрьмы Ю. В. решает вернуться к честной жизни, однако оказывается ненужным ни родителям, ни бывшей девушке, ни старым друзьям, один из которых крадет его идею для собственного бизнеса. Отчаявшись стать законопослушным гражданином и не найдя поддержки у близких, он обращается за помощью к своему новому другу Мрадо и вновь оказывается втянут в игры с вымогательством, грабежами и убийствами.
О красотах природы или архитектуры в данном фильме говорить не приходится. Действие развивается то в тюрьме, то в притонах, то в эмигрантских трущобах на окраине Стокгольма, а блеск и чистота дорогих ресторанов и фитнес-клубов кажутся на их фоне неуместными и чужеродными, словно «Запорожец» на авто-салоне в Детройте.
В итоге получается не лишенный морализаторства фильм о том, как плохо заканчивают те, кто занимается торговлей наркотиками, сутенерством или предает друзей. И с этим не поспоришь, но хотелось бы увидеть на экране нечто большее, чем кровавую баню, которую устроил на экране Наджафи.
Стоит добавить, что в следующем году на экраны выходит третья часть этой истории, которая вновь будет сниматься новым режиссером, и, возможно, получится более внятной, и, наконец, даст ответ на вопрос о бесследном исчезновении сестры Ю. В.
6 из 10

MediaInfo

Общее
Уникальный идентификатор : 176779373791469518249246253716776753550 (0x84FE780D5630670CB8E7E5D7B61D198E)
Полное имя : D:\Video\Snabba.cash.II.2012.L2.BDRip.1080p.h264.ac3.dts.rus.swe.mkv
Формат : Matroska
Версия формата : Version 2
Размер файла : 9,06 Гбайт
Продолжительность : 1 ч. 39 м.
Общий поток : 13,0 Мбит/сек
Дата кодирования : UTC 2013-01-30 00:02:54
Программа кодирования : mkvmerge v5.4.0 ('Piper') built on Mar 10 2012 13:34:39
Библиотека кодирования : libebml v1.2.3 + libmatroska v1.3.0
Видео
Идентификатор : 1
Формат : AVC
Формат/Информация : Advanced Video Codec
Профиль формата : [email protected]
Параметр CABAC формата : Да
Параметр ReFrames формата : 5 кадров
Идентификатор кодека : V_MPEG4/ISO/AVC
Продолжительность : 1 ч. 39 м.
Битрейт : 11,0 Мбит/сек
Ширина : 1920 пикселей
Высота : 816 пикселей
Соотношение сторон : 2,35:1
Частота кадров : 24,000 кадра/сек
Цветовое пространство : YUV
Субдискретизация насыщенности : 4:2:0
Битовая глубина : 8 бит
Тип развёртки : Прогрессивная
Бит/(Пиксели*Кадры) : 0.294
Размер потока : 7,52 Гбайт (83%)
Библиотека кодирования : x264 core 129 r2230 1cffe9f
Настройки программы : cabac=1 / ref=5 / deblock=1:0:0 / analyse=0x3:0x133 / me=umh / subme=7 / psy=1 / psy_rd=1.00:0.00 / mixed_ref=1 / me_range=16 / chroma_me=1 / trellis=1 / 8x8dct=1 / cqm=0 / deadzone=21,11 / fast_pskip=0 / chroma_qp_offset=-2 / threads=18 / lookahead_threads=3 / sliced_threads=0 / nr=0 / decimate=1 / interlaced=0 / bluray_compat=0 / constrained_intra=0 / bframes=3 / b_pyramid=2 / b_adapt=2 / b_bias=0 / direct=3 / weightb=1 / open_gop=0 / weightp=2 / keyint=250 / keyint_min=24 / scenecut=40 / intra_refresh=0 / rc_lookahead=50 / rc=2pass / mbtree=1 / bitrate=11045 / ratetol=1.0 / qcomp=0.60 / qpmin=0 / qpmax=69 / qpstep=4 / cplxblur=20.0 / qblur=0.5 / ip_ratio=1.40 / aq=1:1.00
Язык : Swedish
Default : Нет
Forced : Нет
Аудио #1
Идентификатор : 2
Формат : AC-3
Формат/Информация : Audio Coding 3
Расширение режима : CM (complete main)
Идентификатор кодека : A_AC3
Продолжительность : 1 ч. 39 м.
Вид битрейта : Постоянный
Битрейт : 448 Кбит/сек
Каналы : 6 каналов
Расположение каналов : Front: L C R, Side: L R, LFE
Частота : 48,0 КГц
Битовая глубина : 16 бит
Метод сжатия : С потерями
Размер потока : 320 Мбайт (3%)
Заголовок : Russian AC3
Язык : Russian
Default : Нет
Forced : Нет
Аудио #2
Идентификатор : 3
Формат : DTS
Формат/Информация : Digital Theater Systems
Идентификатор кодека : A_DTS
Продолжительность : 1 ч. 39 м.
Вид битрейта : Постоянный
Битрейт : 1510 Кбит/сек
Каналы : 6 каналов
Расположение каналов : Front: L C R, Side: L R, LFE
Частота : 48,0 КГц
Битовая глубина : 24 бит
Метод сжатия : С потерями
Размер потока : 1,05 Гбайт (12%)
Заголовок : Swedish DTS
Язык : Swedish
Default : Нет
Forced : Нет

Скриншоты

Other forum [Profile] [PM]
Display posts from previous:    
Reply to topic

The time now is: Today 11:04

All times are GMT + 3 Hours



You cannot post new topics in this forum
You cannot reply to topics in this forum
You cannot edit your posts in this forum
You cannot delete your posts in this forum
You cannot vote in polls in this forum
You cannot attach files in this forum
You cannot download files in this forum