Today is a free download without charge Download

Смертельный список / The Hit List (Уильям Кауфман / William Kaufman) [2011] [США] (боевик, триллер) [DVD9 R5] [PAL 16:9] «Columbia/Son

Reply to topic
 
Author
Message

nsa1977 ®

Gender:

Longevity: 9 years 4 months

Posts: 1470

Location: Пенза

Торрент-статистика

Post 12-May-2011 23:15

[Quote]

-Смертельный список / The Hit List-«Two Men. Five Targets. One Night.» -Страна: США
Студия: March On Productions, North by Northwest Entertainment, RCR Media Group, Stage 6 Films
Жанр: боевик, триллер
Год выпуска: 2011
Мировая премьера: 3 апреля 2011
Дата выхода DVD: 12 мая 2011, «Columbia/Sony»
Продолжительность: 01:26:27
Перевод: Профессиональный (многоголосый закадровый) [Лицензия]
Cубтитры: английские, польские, арабские, хорватские, болгарские, греческие, хинди, исландские, португальские, румынские, сербские, словенские, турецкие, украинские
Оригинальная аудиодорожка: английский-Режиссер: Уильям Кауфман / William Kaufman-В ролях: Кьюба Гудинг мл., Коул Хаузер, Джонатан ЛаПалья, Дрю Уотерс, Шон Кук, Майкл Пападжон, Дж.П. О’Шонесси, Дэвид Эндриол, Брэндон О’Нейлл-Описание: Однажды вечером бизнесмен Аллан Кэмпбелл, раздавленный чередой обрушившихся на него неприятностей, знакомится с таинственным незнакомцем Джонасом Арбором. Джонас представляется… профессиональным наемником и предлагает Аллану убить пятерых — на его выбор и совершенно бесплатно. Расценив предложение как неудачную шутку, Аллан составляет список жертв. Но уже на следующий день попавшие в злополучный перечень начинают по очереди погибать… Преследуемый полицией и мучимый чувством вины, Аллан бросается наперегонки со временем, чтобы помешать убийце — ведь за месть всегда приходится расплачиваться.-Бонусы: нет- -Релиз группы: -Качество: DVD9 R5
Формат: DVD-Video
Видео кодек: MPEG2
Аудио кодек: AC3
Видео: PAL 16:9 (720x576(0.527)) MPEG Video,25,000 кадр/сек, 5461 Кбит/сек
Аудио #1: English (Dolby AC3, 6 ch) 448 Кбит/сек, 48,0 КГц
Аудио #2: Polish (Dolby AC3, 6 ch) 448 Кбит/сек, 48,0 КГц
Аудио #3: Russian (Dolby AC3, 6 ch) 448 Кбит/сек, 48,0 КГц-
-

DVDInfo

Title: Мой диск
Size: 4.57 Gb ( 4 794 852 KBytes ) - DVD-9
Enabled regions: 1, 2, 3, 4, 5, 6, 7, 8
VTS_01 :
Play Length: 01:26:27
Video: PAL 16:9 (720x576) VBR, Auto Letterboxed
Audio:
English (Dolby AC3, 6 ch)
Polish (Dolby AC3, 6 ch)
Russian (Dolby AC3, 6 ch)
Subtitles:
English
Polish
Arabic
Bulgarian
Hrvatski
Greek
Hindi
Islenska
Portugues
Romanian
Serbian
Slovenian
Turkish
Ukrainian
VTS_02 :
Play Length:
Video: PAL 4:3 (720x576) VBR
VTS_03 :
Play Length:
Video: PAL 16:9 (720x576) VBR, Auto Letterboxed
VTS_04 :
Play Length:
Video: PAL 16:9 (720x576) VBR, Auto Letterboxed
VTS_05 :
Play Length:
Video: PAL 16:9 (720x576) VBR, Auto Letterboxed
VTS_06 :
Play Length:
Video: PAL 16:9 (720x576) VBR, Auto Letterboxed
VTS_07 :
Play Length:
Video: PAL 16:9 (720x576) VBR, Auto Letterboxed
VTS_08 :
Play Length: 00:00:01
Video: PAL 16:9 (720x576) VBR, Auto Letterboxed
VTS_09 :
Play Length: 00:00:01
Video: PAL 16:9 (720x576) VBR, Auto Letterboxed
VTS_10 :
Play Length: 00:00:01
Video: PAL 4:3 (720x576) VBR
VTS_11 :
Play Length: 00:00:01
Video: PAL 4:3 (720x576) VBR
VTS_12 :
Play Length:
Video: PAL 16:9 (720x576) VBR, Auto Letterboxed
VTS_13 :
Play Length:
Video: PAL 16:9 (720x576) VBR, Auto Letterboxed
VTS_14 :
Play Length: 00:00:10+00:00:12+00:00:08+00:00:39+00:00:38+00:00:05
Video: PAL 16:9 (720x576) VBR, Auto Letterboxed
Audio:
Not specified (Dolby AC3, 2 ch)
VTS_15 :
Play Length: 00:00:12
Video: PAL 4:3 (720x576) VBR
VTS_16 :
Play Length: 00:00:05
Video: PAL 16:9 (720x576) VBR, Auto Letterboxed
Audio:
Not specified (Dolby AC3, 2 ch)
VTS_17 :
Play Length:
Video: PAL 16:9 (720x576) VBR, Auto Letterboxed
VTS_18 :
Play Length:
Video: PAL 16:9 (720x576) VBR, Auto Pan&Scan

MediaInfo

Общее
Полное имя : F:\Новинки 2011\Smertelnyj.spisok.2011.DVD9\VIDEO_TS\VTS_01_1.VOB
Формат : MPEG-PS
Размер файла : 1024 Мбайт
Продолжительность : 20 м.
Общий поток : 6943 Кбит/сек
Видео
Идентификатор : 224 (0xE0)
Формат : MPEG Video
Версия формата : Version 2
Профиль формата : [email protected]
Параметр BVOP формата : Да
Параметр матрицы формата : По умолчанию
Продолжительность : 20 м.
Вид битрейта : Переменный
Битрейт : 5461 Кбит/сек
Номинальный битрейт : 9800 Кбит/сек
Ширина : 720 пикс.
Высота : 576 пикс.
Соотношение сторон : 16:9
Частота кадров : 25,000 кадр/сек
Стандарт вещания : PAL
Цветовое пространство : YUV
Подвыборка цветности : 4:2:0
Битовая глубина : 8 бит
Тип развёртки : Прогрессивная
Порядок развёртки : Верхнее поле первое
Метод сжатия : С потерями
Бит/(Пиксели*Кадры) : 0.527
Размер потока : 805 Мбайт (79%)
Аудио #1
Идентификатор : 189 (0xBD)-128 (0x80)
Формат : AC-3
Формат/Информация : Audio Coding 3
Расширение режима : CM (complete main)
Режим смешивания : DVD-Video
Продолжительность : 20 м.
Вид битрейта : Постоянный
Битрейт : 448 Кбит/сек
Канал(ы) : 6 канала(ов)
Расположение каналов : Front: L C R, Side: L R, LFE
Частота : 48,0 КГц
Битовая глубина : 16 бит
Метод сжатия : С потерями
Размер потока : 66,1 Мбайт (6%)
Аудио #2
Идентификатор : 189 (0xBD)-129 (0x81)
Формат : AC-3
Формат/Информация : Audio Coding 3
Расширение режима : CM (complete main)
Режим смешивания : DVD-Video
Продолжительность : 20 м.
Вид битрейта : Постоянный
Битрейт : 448 Кбит/сек
Канал(ы) : 6 канала(ов)
Расположение каналов : Front: L C R, Side: L R, LFE
Частота : 48,0 КГц
Битовая глубина : 16 бит
Метод сжатия : С потерями
Размер потока : 66,1 Мбайт (6%)
Аудио #3
Идентификатор : 189 (0xBD)-130 (0x82)
Формат : AC-3
Формат/Информация : Audio Coding 3
Расширение режима : CM (complete main)
Режим смешивания : DVD-Video
Продолжительность : 20 м.
Вид битрейта : Постоянный
Битрейт : 448 Кбит/сек
Канал(ы) : 6 канала(ов)
Расположение каналов : Front: L C R, Side: L R, LFE
Частота : 48,0 КГц
Битовая глубина : 16 бит
Метод сжатия : С потерями
Размер потока : 66,1 Мбайт (6%)

Скриншоты меню

     

Скриншоты фильма

        

_________________


Last edited by nsa1977 on 2011-05-12 23:17; edited 2 times in total
Other forum [Profile] [PM]

Dracula

Longevity: 6 years 1 month

Posts: 10646

Торрент-статистика

Post 13-May-2011 11:33 (after 12 hours)

Топик был перенесен из форума Фильмы 2011 (новинки) в форум Новинки (DVD, HD Video)

Vildanoff
 
Similar theme
Forum Topic Author Torrent Replies Last Post
./templates/default/images/folder_dl.gif Антология зарубежного кино Жажда смерти [Пенталогия] / Death Wish [Pentalogy] (Майкл Уиннер, Дж. Ли Томпсон, Аллан Голдштейн) [1974–1993, боевик, триллер, DVDRip] MVO, AVO, VO O.S.A.
1 | 0

1 | 2546

1

2015-11-13 22:52
O.S.A. Latest
Display posts from previous:    
Reply to topic

The time now is: Today 21:22

All times are GMT + 3 Hours



You cannot post new topics in this forum
You cannot reply to topics in this forum
You cannot edit your posts in this forum
You cannot delete your posts in this forum
You cannot vote in polls in this forum
You cannot attach files in this forum
You cannot download files in this forum