Today is a free download without charge Download

Discovery: Выжить любой ценой: Сибирь - 2 / Ultimate Survival: Siberia - 2 (2008) TVRip-AVC

Reply to topic
 
Author
Message

Omen ®

Longevity: 7 years 10 months

Posts: 181087

Торрент-статистика

Post 30-Jan-2013 04:42

[Quote]


Информация о фильме
Название: Сибирь часть - 2
Оригинальное название: Siberia Part - 2
Ведущий Bеar Grylls
Год выхода: 2008
Жанр: документальный
Выпущено: Discovery
Перевод: закадровый (профессиональный одноголосый)
О фильме:
Продолжение приключений Беара Гриллса в Сибири(Первая часть здесь)
Беар Гриллс пройдет маршрут в опасных Саянских горах и в встретится с людьми, которые научились выживать здесь, для того чтобы показать вам то, что знают они . Например, как мертвый Як может спасти вам жизнь . Как охотиться и есть пищу, вызывающую рвотные спазмы .
Видео: AVC, 688x432, 25 fps, 1200 kbps, 0.161 bit/pixel
Аудио: AAC (LC), 32 kHz, 1 ch, 56 kbps

Media Info

Общее
Формат : MPEG-4
Профиль формата : Base Media
Идентификатор кодека : isom
Размер файла : 387 Мбайт
Продолжительность : 42 м.
Режим общего битрейта : Переменный
Общий поток : 1259 Кбит/сек
Дата кодирования : UTC 2012-03-14 19:17:41
Дата пометки : UTC 2012-03-14 19:17:41
Программа кодирования : My MP4Box GUI 0.5.5.4
Видео
Идентификатор : 1
Формат : AVC
Формат/Информация : Advanced Video Codec
Профиль формата : [email protected]1
Параметр CABAC формата : Да
Параметр ReFrames формата : 8 кадров
Идентификатор кодека : avc1
Идентификатор кодека/Информация : Advanced Video Coding
Продолжительность : 42 м.
Битрейт : 1199 Кбит/сек
Максимальный битрейт : 5242 Кбит/сек
Ширина : 688 пикселей
Высота : 432 пикселя
Соотношение сторон : 1,593
Режим частоты кадров : Постоянный
Частота кадров : 25,000 кадров/сек
Цветовое пространство : YUV
Субдискретизация насыщенности : 4:2:0
Битовая глубина : 8 бит
Тип развёртки : Прогрессивная
Бит/(Пиксели*Кадры) : 0.161
Размер потока : 369 Мбайт (95%)
Заголовок : Video
Библиотека кодирования : x264 core 119 r2106 07efeb4
Настройки программы : cabac=1 / ref=8 / deblock=1:0:0 / analyse=0x3:0x133 / me=umh / subme=9 / psy=1 / psy_rd=1.00:0.00 / mixed_ref=1 / me_range=16 / chroma_me=1 / trellis=2 / 8x8dct=1 /
cqm=0 / deadzone=21,11 / fast_pskip=1 / chroma_qp_offset=-2 / threads=6 / sliced_threads=0 / nr=0 / decimate=1 / interlaced=0 / bluray_compat=0 / constrained_intra=0 / bframes=3 / b_pyramid=2 / b_adapt=2 /
b_bias=0 / direct=3 / weightb=1 / open_gop=0 / weightp=2 / keyint=250 / keyint_min=25 / scenecut=40 / intra_refresh=0 / rc_lookahead=60 / rc=2pass / mbtree=1 / bitrate=1199 / ratetol=1.0 / qcomp=0.60 /
qpmin=0 / qpmax=69 / qpstep=4 / cplxblur=20.0 / qblur=0.5 / ip_ratio=1.40 / aq=1:1.00
Дата кодирования : UTC 2012-03-14 23:20:31
Дата пометки : UTC 2012-03-14 19:17:56
Аудио
Идентификатор : 2
Формат : AAC
Формат/Информация : Advanced Audio Codec
Профиль формата : LC
Идентификатор кодека : 40
Продолжительность : 42 м.
Вид битрейта : Переменный
Битрейт : 56,0 Кбит/сек
Максимальный битрейт : 60,9 Кбит/сек
Каналы : 1 канал
Расположение каналов : Front: C
Частота : 32,0 КГц
Метод сжатия : С потерями
Размер потока : 17,2 Мбайт (4%)
Язык : English
Дата кодирования : UTC 2012-03-14 19:17:56
Дата пометки : UTC 2012-03-14 19:17:56
Other forum [Profile] [PM]
Display posts from previous:    
Reply to topic

The time now is: Today 16:07

All times are GMT + 3 Hours



You cannot post new topics in this forum
You cannot reply to topics in this forum
You cannot edit your posts in this forum
You cannot delete your posts in this forum
You cannot vote in polls in this forum
You cannot attach files in this forum
You cannot download files in this forum