Today is a free download without charge Download

Discovery: Выжить любой ценой: Еда Беара / Ultimate Survival: Bear Eats (2007) TVRip-AVC

Reply to topic
 
Author
Message

Omen ®

Longevity: 7 years 10 months

Posts: 181087

Торрент-статистика

Post 30-Jan-2013 04:42

[Quote]


Информация о фильме
Название: Еда Беара
Оригинальное название: Bear Eats
Ведущий Bеar Grylls
Год выхода: 2007
Жанр: документальный
Выпущено: Discovery
Перевод: закадровый (профессиональный одноголосый)
О фильме:
Если вы потерялись и застряли где - то в глуши, то забудьте о пищевых предрассудках . Вам придется есть личинки, жуков, муравьев, сырое мясо рыбы и павших животных, комаров и даже козлиные яйца !
Вообщем - это все то, что является обычным блюдом Беара Гриллса (Беар Гриллс (BEAR GRYLLS) - бывший спецназовец SAS, эксперт по выживанию в условиях дикой природы) на съемках сериала "Выжить любой ценой" .
Видео: AVC, 704x440, 25 fps, 1200 kbps, 0.155 bit/pixel
Аудио: AAC (LC), 32 kHz, 1 ch, 56 kbps

Media Info

Общее
Полное имя : I:Видео & АудиоДокументальный фильмВыжить любой ценой[VLC]Eda Beara(2007)TVRip[VLC]Eda Beara(2007)TVRip.mp4
Формат : MPEG-4
Профиль формата : Base Media
Идентификатор кодека : isom
Размер файла : 372 Мбайт
Продолжительность : 41 м.
Режим общего битрейта : Переменный
Общий поток : 1258 Кбит/сек
Дата кодирования : UTC 2012-03-15 19:48:26
Дата пометки : UTC 2012-03-15 19:48:26
Программа кодирования : My MP4Box GUI 0.5.5.4
Видео
Идентификатор : 1
Формат : AVC
Формат/Информация : Advanced Video Codec
Профиль формата : [email protected]
Параметр CABAC формата : Да
Параметр ReFrames формата : 8 кадров
Идентификатор кодека : avc1
Идентификатор кодека/Информация : Advanced Video Coding
Продолжительность : 41 м.
Битрейт : 1199 Кбит/сек
Максимальный битрейт : 4798 Кбит/сек
Ширина : 704 пикселя
Высота : 440 пикселей
Соотношение сторон : 1,600
Режим частоты кадров : Постоянный
Частота кадров : 25,000 кадров/сек
Цветовое пространство : YUV
Субдискретизация насыщенности : 4:2:0
Битовая глубина : 8 бит
Тип развёртки : Прогрессивная
Бит/(Пиксели*Кадры) : 0.155
Размер потока : 354 Мбайт (95%)
Заголовок : Video
Библиотека кодирования : x264 core 119 r2106 07efeb4
Настройки программы : cabac=1 / ref=8 / deblock=1:0:0 / analyse=0x3:0x133 / me=umh / subme=9 / psy=1 / psy_rd=1.00:0.00 / mixed_ref=1 / me_range=16 / chroma_me=1 / trellis=2 / 8x8dct=1 / cqm=0 / deadzone=21,11 / fast_pskip=1 / chroma_qp_offset=-2 / threads=6 / sliced_threads=0 / nr=0 / decimate=1 / interlaced=0 / bluray_compat=0 / constrained_intra=0 / bframes=3 / b_pyramid=2 / b_adapt=2 / b_bias=0 / direct=3 / weightb=1 / open_gop=0 / weightp=2 / keyint=250 / keyint_min=25 / scenecut=40 / intra_refresh=0 / rc_lookahead=60 / rc=2pass / mbtree=1 / bitrate=1199 / ratetol=1.0 / qcomp=0.60 / qpmin=0 / qpmax=69 / qpstep=4 / cplxblur=20.0 / qblur=0.5 / ip_ratio=1.40 / aq=1:1.00
Дата кодирования : UTC 2012-03-15 23:02:40
Дата пометки : UTC 2012-03-15 19:48:39
Аудио
Идентификатор : 2
Формат : AAC
Формат/Информация : Advanced Audio Codec
Профиль формата : LC
Идентификатор кодека : 40
Продолжительность : 41 м.
Вид битрейта : Переменный
Битрейт : 56,0 Кбит/сек
Максимальный битрейт : 60,8 Кбит/сек
Каналы : 1 канал
Расположение каналов : Front: C
Частота : 32,0 КГц
Метод сжатия : С потерями
Размер потока : 16,6 Мбайт (4%)
Язык : English
Дата кодирования : UTC 2012-03-15 19:48:38
Дата пометки : UTC 2012-03-15 19:48:39
Other forum [Profile] [PM]
Display posts from previous:    
Reply to topic

The time now is: Today 16:39

All times are GMT + 3 Hours



You cannot post new topics in this forum
You cannot reply to topics in this forum
You cannot edit your posts in this forum
You cannot delete your posts in this forum
You cannot vote in polls in this forum
You cannot attach files in this forum
You cannot download files in this forum