Today is a free download without charge Download

Discovery: Выжить любой ценой: Ирландия / Ultimate Survival: Ireland (2008) SATRip-AVC

Reply to topic
 
Author
Message

Omen ®

Longevity: 7 years 10 months

Posts: 181087

Торрент-статистика

Post 30-Jan-2013 04:37

[Quote]


Информация о фильме
Название: Ирландия
Оригинальное название: Ireland
Ведущий Bеar Grylls
Год выхода: 2008
Жанр: документальный
Выпущено: Discovery
Перевод: закадровый (профессиональный одноголосый)
Западный берег Ирландии - утесы, высотой 600 метров и бескрайний атлантический океан . Беар Гриллс высадится вплавь, на это раздробленное многочисленными штормами побережье, которое называют ""Берегом Кораблекрушений" !
Беар Гриллс - эксперт, по выживанию, бывший спецназовец S.A.S., покажет и расскажет, как выжить в этой дикой глуши !
Видео: AVC, [email protected]х576 Anamorphic, 16:9, 25 fps, 1200 kbps, 0.116 bit/pixel
Аудио: AAC (LC), 32 kHz, 1 ch, 56 kbps

Media Info

Формат : MPEG-4
Профиль формата : Base Media
Идентификатор кодека : isom
Размер файла : 393 Мбайт
Продолжительность : 43 м.
Режим общего битрейта : Переменный
Общий поток : 1259 Кбит/сек
Дата кодирования : UTC 2012-04-05 04:12:17
Дата пометки : UTC 2012-04-05 04:12:17
Программа кодирования : My MP4Box GUI 0.5.5.4
Видео
Идентификатор : 1
Формат : AVC
Формат/Информация : Advanced Video Codec
Профиль формата : [email protected]
Параметр CABAC формата : Да
Параметр ReFrames формата : 8 кадров
Идентификатор кодека : avc1
Идентификатор кодека/Информация : Advanced Video Coding
Продолжительность : 43 м.
Битрейт : 1199 Кбит/сек
Максимальный битрейт : 4826 Кбит/сек
Ширина : 720 пикселей
Высота : 576 пикселей
Соотношение сторон : 16:9
Режим частоты кадров : Постоянный
Частота кадров : 25,000 кадров/сек
Стандарт вещания : PAL
Цветовое пространство : YUV
Субдискретизация насыщенности : 4:2:0
Битовая глубина : 8 бит
Тип развёртки : Прогрессивная
Бит/(Пиксели*Кадры) : 0.116
Размер потока : 375 Мбайт (95%)
Заголовок : Video
Библиотека кодирования : x264 core 119 r2106 07efeb4
Настройки программы : cabac=1 / ref=8 / deblock=1:0:0 / analyse=0x3:0x133 / me=umh / subme=9 / psy=1 / psy_rd=1.00:0.00 / mixed_ref=1 / me_range=16 / chroma_me=1 / trellis=2 / 8x8dct=1 / cqm=0 / deadzone=21,11 / fast_pskip=1 / chroma_qp_offset=-2 / threads=6 / sliced_threads=0 / nr=0 / decimate=1 / interlaced=0 / bluray_compat=0 / constrained_intra=0 / bframes=3 / b_pyramid=2 / b_adapt=2 / b_bias=0 / direct=3 / weightb=1 / open_gop=0 / weightp=2 / keyint=250 / keyint_min=25 / scenecut=40 / intra_refresh=0 / rc_lookahead=60 / rc=2pass / mbtree=1 / bitrate=1199 / ratetol=1.0 / qcomp=0.60 / qpmin=0 / qpmax=69 / qpstep=4 / cplxblur=20.0 / qblur=0.5 / ip_ratio=1.40 / aq=1:1.00
Дата кодирования : UTC 2012-04-03 23:58:58
Дата пометки : UTC 2012-04-05 04:12:25
Аудио
Идентификатор : 2
Формат : AAC
Формат/Информация : Advanced Audio Codec
Профиль формата : LC
Идентификатор кодека : 40
Продолжительность : 43 м.
Вид битрейта : Переменный
Битрейт : 56,0 Кбит/сек
Максимальный битрейт : 60,8 Кбит/сек
Каналы : 1 канал
Расположение каналов : Front: C
Частота : 32,0 КГц
Метод сжатия : С потерями
Размер потока : 17,5 Мбайт (4%)
Язык : English
Дата кодирования : UTC 2012-04-05 04:12:25
Дата пометки : UTC 2012-04-05 04:12:25
Скриншоты
Other forum [Profile] [PM]
Display posts from previous:    
Reply to topic

The time now is: Today 14:56

All times are GMT + 3 Hours



You cannot post new topics in this forum
You cannot reply to topics in this forum
You cannot edit your posts in this forum
You cannot delete your posts in this forum
You cannot vote in polls in this forum
You cannot attach files in this forum
You cannot download files in this forum