Today is a free download without charge Download

Джунгли (Александр Войтинский) [2012, Россия, мелодрама, комедия, приключения, BDRip 720p] + Original Rus

Reply to topic
 
Author
Message

Omen ®

Longevity: 8 years 10 months

Posts: 181086

Торрент-статистика

Post 30-Jan-2013 01:36

[Quote]

Джунгли
Страна: Россия
Студия: Кинокомпания CTB
Жанр: мелодрама, комедия, приключения
Год выпуска: 2012
Продолжительность: 01:23:27
Перевод: Не требуется
Cубтитры: нет
Оригинальная аудиодорожка: русский
Режиссер: Александр Войтинский
В ролях: Сергей Светлаков, Вера Брежнева, Александр Макогон, Александр Половцев, Марина Дюжева, Михаил Ефремов, Ирина Медведева, Андрей Гаврилов
Описание: У Сергея и Марины в семейной жизни наступил кризис. Во время одной из ссор, они решают поехать в экзотическое путешествие. Всю дорогу между супругами не утихают ссоры, которые в конце концов приводят к тому, что они оказываются на необитаемом острове, затерянном в океане. Вместо того чтобы вместе бороться за выживание, наши герои продолжают выяснять отношения, постепенно переходя к настоящим боевым действиям. В довершение несчастий оказывается, что остров населен племенем воинствующих туземцев.
Сэмпл: http://multi-up.com/824231
Тип релиза: BDRip 720p
Контейнер: MKV
Видео: 5926 Kbps, 1280*542 (2.35:1), 23.976 fps, avc
Аудио: Rus, 1510 kbps, 48.0 KHz, 16 bits, 6 ch, dts
Релиз от:
-
-

MediaInfo

General
Unique ID : 210900141708086772161911633154784682707 (0x9EA9E3CB2F6F8E79B978C9C8CACCE2D3)
Complete name : D:\ноут\Dzhungli.2012.BDRip.720p!.mkv
Format : Matroska
File size : 4.42 GiB
Duration : 1h 23mn
Overall bit rate : 7 587 Kbps
Encoded date : UTC 2013-01-27 06:07:49
Writing application : mkvmerge v5.2.0 ('I can't explain') built on Dec 18 2011 18:12:03
Writing library : libebml v1.2.3 + libmatroska v1.3.0
Video
ID : 1
Format : AVC
Format/Info : Advanced Video Codec
Format profile : [email protected]
Format settings, CABAC : Yes
Format settings, ReFrames : 12 frames
Codec ID : V_MPEG4/ISO/AVC
Duration : 1h 23mn
Bit rate : 5 926 Kbps
Width : 1 280 pixels
Height : 542 pixels
Display aspect ratio : 2.35:1
Frame rate : 23.976 fps
Color space : YUV
Chroma subsampling : 4:2:0
Bit depth : 8 bits
Scan type : Progressive
Bits/(Pixel*Frame) : 0.356
Stream size : 3.45 GiB (78%)
Title : Dzhungli 2012 720p BluRay DTS x264-IRONCLUB
Writing library : x264 core 129 r2245kMod bc13772
Encoding settings : cabac=1 / ref=12 / deblock=1:-3:-3 / analyse=0x3:0x113 / me=umh / subme=11 / psy=1 / fade_compensate=0.00 / psy_rd=1.10:0.00 / mixed_ref=1 / me_range=48 / chroma_me=1 / trellis=2 / 8x8dct=1 / cqm=0 / deadzone=21,11 / fast_pskip=0 / chroma_qp_offset=-2 / threads=12 / lookahead_threads=2 / sliced_threads=0 / nr=0 / decimate=1 / interlaced=0 / bluray_compat=0 / constrained_intra=0 / bframes=9 / b_pyramid=2 / b_adapt=2 / b_bias=0 / direct=3 / weightb=1 / open_gop=0 / weightp=2 / keyint=250 / keyint_min=23 / scenecut=40 / intra_refresh=0 / rc_lookahead=60 / rc=crf / mbtree=0 / crf=17.5000 / qcomp=0.70 / qpmin=0 / qpmax=69 / qpstep=4 / vbv_maxrate=50000 / vbv_bufsize=62500 / crf_max=0.0 / nal_hrd=none / ip_ratio=1.30 / pb_ratio=1.20 / aq=1:0.85
Language : Russian
Audio
ID : 2
Format : DTS
Format/Info : Digital Theater Systems
Codec ID : A_DTS
Duration : 1h 23mn
Bit rate mode : Constant
Bit rate : 1 510 Kbps
Channel(s) : 6 channels
Channel positions : Front: L C R, Side: L R, LFE
Sampling rate : 48.0 KHz
Bit depth : 16 bits
Compression mode : Lossy
Stream size : 901 MiB (20%)
Title : DTS 5.1 @ 1536 kbps
Language : Russian
Menu
00:00:00.000 : ru:00:00:00.000
00:04:00.740 : ru:00:04:00.740
00:07:56.267 : ru:00:07:56.267
00:14:02.007 : ru:00:14:02.007
00:17:18.287 : ru:00:17:18.287
00:21:46.930 : ru:00:21:46.930
00:27:42.410 : ru:00:27:42.410
00:34:58.763 : ru:00:34:58.763
00:40:15.579 : ru:00:40:15.579
00:46:24.239 : ru:00:46:24.239
00:51:48.021 : ru:00:51:48.021
00:56:29.052 : ru:00:56:29.052
01:00:57.987 : ru:01:00:57.987
01:07:08.065 : ru:01:07:08.065
01:13:54.096 : ru:01:13:54.096
01:18:50.183 : ru:01:18:50.183

Скриншоты


Other forum [Profile] [PM]
Display posts from previous:    
Reply to topic

The time now is: Today 22:27

All times are GMT + 3 Hours



You cannot post new topics in this forum
You cannot reply to topics in this forum
You cannot edit your posts in this forum
You cannot delete your posts in this forum
You cannot vote in polls in this forum
You cannot attach files in this forum
You cannot download files in this forum