Today is a free download without charge Download

Грязная кампания за честные выборы / The Campaign (Джей Роуч) [2012, США, Комедия, BDRemux 1080p] MVO

Reply to topic
 
Author
Message

Omen ®

Longevity: 8 years 5 months

Posts: 181087

Торрент-статистика

Post 30-Jan-2013 01:36

[Quote]

Грязная кампания за честные выборы / The Campaign
Страна: США
Студия: Everyman Pictures, Gary Sanchez Productions
Жанр: Комедия
Год выпуска: 2012
Продолжительность: 01:25:29
Перевод: Профессиональный (многоголосый закадровый)
Cубтитры: нет
Режиссер: Джей Роуч
В ролях: Уилл Феррелл, Зак Галифианакис, Джейсон Судейкис, Дилан МакДермотт, Кэтрин ЛаНаса, Сара Бэйкер, Джон Литгоу, Дэн Эйкройд, Брайан Кокс, Карен Маруяма
Описание: Два конкурирующих политика Кэм Брэди и Марти Хаггинс, пытаются победить на выборах, чтобы представлять свой небольшой штат Северная Каролина в Палате представителей США. Каждый при этом использует свои методы для достижения наилучшего результата.
Сэмпл: http://www.sendspace.com/file/7sakjq
Тип релиза: BDRemux 1080p
Контейнер: MKV
Видео: MPEG-4 AVC (H264), 1920x1080, 23.976fps, 19.5 Mbps, High Profile 4.1
Аудио: Russian, AC3, 48000Hz, 6ch, 640 Kbps

MediaInfo

General
Unique ID : 239761508230264860456437609585068804931 (0xB4606306B704460B9CDBB19ADFF50B43)
Complete name : E:\Куно\Грязная кампания за честные выборы.mkv
Format : Matroska
Format version : Version 4 / Version 2
File size : 12.3 GiB
Duration : 1h 25mn
Overall bit rate mode : Variable
Overall bit rate : 20.5 Mbps
Encoded date : UTC 2010-02-22 21:41:31
Writing application : mkvmerge v5.9.0 ('On The Loose') built on Dec 9 2012 15:37:01
Writing library : libebml v1.3.0 + libmatroska v1.4.0
Video
ID : 1
Format : AVC
Format/Info : Advanced Video Codec
Format profile : [email protected]
Format settings, CABAC : Yes
Format settings, ReFrames : 2 frames
Codec ID : V_MPEG4/ISO/AVC
Duration : 1h 25mn
Bit rate mode : Variable
Bit rate : 19.5 Mbps
Width : 1 920 pixels
Height : 1 080 pixels
Display aspect ratio : 16:9
Frame rate mode : Constant
Frame rate : 23.976 fps
Color space : YUV
Chroma subsampling : 4:2:0
Bit depth : 8 bits
Scan type : Progressive
Bits/(Pixel*Frame) : 0.392
Stream size : 11.6 GiB (95%)
Default : Yes
Forced : No
Audio
ID : 2
Format : AC-3
Format/Info : Audio Coding 3
Mode extension : CM (complete main)
Format settings, Endianness : Big
Codec ID : A_AC3
Duration : 1h 25mn
Bit rate mode : Constant
Bit rate : 640 Kbps
Channel(s) : 6 channels
Channel positions : Front: L C R, Side: L R, LFE
Sampling rate : 48.0 KHz
Bit depth : 16 bits
Compression mode : Lossy
Stream size : 391 MiB (3%)
Language : Russian
Default : Yes
Forced : No

Скриншот с названием

Скриншоты

Other forum [Profile] [PM]
Display posts from previous:    
Reply to topic

The time now is: Today 11:01

All times are GMT + 3 Hours



You cannot post new topics in this forum
You cannot reply to topics in this forum
You cannot edit your posts in this forum
You cannot delete your posts in this forum
You cannot vote in polls in this forum
You cannot attach files in this forum
You cannot download files in this forum