Today is a free download without charge Download

Синистер / Sinister (Скотт Дерриксон / Scott Derrickson) [2012, США, ужасы, триллер, детектив, BDRip 720p] Dub + Original Eng + Subs (Rus, Eng)

Reply to topic
 
Author
Message

Omen ®

Longevity: 8 years 5 months

Posts: 181087

Торрент-статистика

Post 30-Jan-2013 01:36

[Quote]

Синистер / Sinister-Год выпуска: 2012
Страна: США
Жанр: ужасы, триллер, детектив
Продолжительность: 01:49:45
Перевод: Профессиональный (дублированный)
Оригинальная аудиодорожка: Английская
Субтитры: Русские, английские
Студия: Alliance Films, Automatik Entertainment, Blumhouse Productions
Режиссёр: Скотт Дерриксон / Scott Derrickson
В ролях: Итан Хоук (Ellison Oswalt), Джульет Райлэнс (Tracy), Фред Долтон Томпсон (Sheriff), Джеймс Рэнсон (Deputy), Майкл Холл Д’Аддарио (Trevor), Клер Фоли (Ashley), Роб Райли (E.M.T.), Тэвис Смайли (Anchor), Джанет Заппала (Reporter), Виктория Ли (Stephanie) и др.
Описание: Вместе с семьёй автор детективов поселяется в небольшом городке, в доме, где почти год назад развернулась леденящая душу трагедия - были убиты все жильцы. Писатель случайно находит видеозаписи, которые являются ключом к тайне преступления. Но ничто не даётся даром: в доме начинают происходить жуткие вещи и теперь под угрозой жизнь его близких. Они столкнулись с чем-то, от чего нет спасения…
-Качество: BDRip 720p
Контейнер: MKV
Видео: 1280 x 534 (2.397) at 23.976 fps, AVC at 5500 Кбит/сек
Аудио 1: AC-3 at 448 Кбит/сек, 6 каналов, 48,0 КГц (Dub)
Аудио 2: DTS at 768 Кбит/сек, 6 каналов, 48,0 КГц (Оригинал)
Субтитры: UTF-8 Plain Text-SAMPLE

MediaInfo

Общее
Уникальный идентификатор : 231331098776950554284571126334855107651 (0xAE08BFBFCA92E921991B4D5ED618D443)
Полное имя : Синистер - Sinister (2012) BDRip 720p.mkv
Формат : Matroska
Версия формата : Version 4 / Version 2
Размер файла : 5,14 Гбайт
Продолжительность : 1 ч. 49 м.
Общий поток : 6704 Кбит/сек
Название фильма : Sinister (2012)
Дата кодирования : UTC 2013-01-29 19:27:40
Программа кодирования : mkvmerge v6.0.0 ('Coming Up For Air') built on Jan 20 2013 09:52:00
Библиотека кодирования : libebml v1.3.0 + libmatroska v1.4.0
Видео
Идентификатор : 1
Формат : AVC
Формат/Информация : Advanced Video Codec
Профиль формата : [email protected]
Параметр CABAC формата : Да
Параметр ReFrames формата : 12 кадров
Идентификатор кодека : V_MPEG4/ISO/AVC
Продолжительность : 1 ч. 49 м.
Битрейт : 5500 Кбит/сек
Ширина : 1280 пикселей
Высота : 534 пикселя
Соотношение сторон : 2,40:1
Режим частоты кадров : Постоянный
Частота кадров : 23,976 кадра/сек
Цветовое пространство : YUV
Субдискретизация насыщенности : 4:2:0
Битовая глубина : 8 бит
Тип развёртки : Прогрессивная
Бит/(Пиксели*Кадры) : 0.336
Размер потока : 4,11 Гбайт (80%)
Заголовок : Синистер / Sinister
Библиотека кодирования : x264 core 129 r2245 bc13772
Настройки программы : cabac=1 / ref=12 / deblock=1:-3:-3 / analyse=0x3:0x133 / me=umh / subme=11 / psy=1 / psy_rd=1.07:0.02 / mixed_ref=1 / me_range=64 / chroma_me=1 / trellis=2 / 8x8dct=1 / cqm=0 / deadzone=21,11 / fast_pskip=0 / chroma_qp_offset=-3 / threads=12 / lookahead_threads=2 / sliced_threads=0 / nr=0 / decimate=0 / interlaced=0 / bluray_compat=0 / constrained_intra=0 / bframes=14 / b_pyramid=2 / b_adapt=2 / b_bias=0 / direct=3 / weightb=1 / open_gop=0 / weightp=2 / keyint=240 / keyint_min=22 / scenecut=40 / intra_refresh=0 / rc_lookahead=60 / rc=2pass / mbtree=0 / bitrate=5500 / ratetol=1.0 / qcomp=0.65 / qpmin=0 / qpmax=69 / qpstep=4 / cplxblur=20.0 / qblur=0.5 / vbv_maxrate=50000 / vbv_bufsize=50000 / nal_hrd=none / ip_ratio=1.40 / pb_ratio=1.25 / aq=1:0.70
Язык : English
Default : Да
Forced : Нет
Основные цвета : BT.709
Характеристики трансфера : BT.709
Коэффициенты матрицы : BT.709
Аудио #1
Идентификатор : 2
Формат : AC-3
Формат/Информация : Audio Coding 3
Расширение режима : CM (complete main)
Параметр Endianness формата : Big
Идентификатор кодека : A_AC3
Продолжительность : 1 ч. 49 м.
Вид битрейта : Постоянный
Битрейт : 448 Кбит/сек
Каналы : 6 каналов
Расположение каналов : Front: L C R, Side: L R, LFE
Частота : 48,0 КГц
Битовая глубина : 16 бит
Метод сжатия : С потерями
Размер потока : 352 Мбайт (7%)
Заголовок : Профессиональный (дублированный) R5
Язык : Russian
Default : Да
Forced : Да
Аудио #2
Идентификатор : 3
Формат : DTS
Формат/Информация : Digital Theater Systems
Режим : 16
Параметр Endianness формата : Big
Идентификатор кодека : A_DTS
Продолжительность : 1 ч. 49 м.
Вид битрейта : Постоянный
Битрейт : 768 Кбит/сек
Каналы : 6 каналов
Расположение каналов : Front: L C R, Side: L R, LFE
Частота : 48,0 КГц
Битовая глубина : 24 бит
Метод сжатия : С потерями
Размер потока : 603 Мбайт (11%)
Заголовок : Original English
Язык : English
Default : Нет
Forced : Нет
Текст #1
Идентификатор : 4
Формат : UTF-8
Идентификатор кодека : S_TEXT/UTF8
Идентификатор кодека/Информация : UTF-8 Plain Text
Заголовок : Russian Subs
Язык : Russian
Default : Нет
Forced : Нет
Текст #2
Идентификатор : 5
Формат : UTF-8
Идентификатор кодека : S_TEXT/UTF8
Идентификатор кодека/Информация : UTF-8 Plain Text
Заголовок : English Subs
Язык : English
Default : Нет
Forced : Нет
Меню
00:00:00.000 : en:00:00:00.000
00:10:47.605 : en:00:10:47.605
00:19:12.360 : en:00:19:12.360
00:27:15.217 : en:00:27:15.217
00:37:05.557 : en:00:37:05.557
00:46:42.383 : en:00:46:42.383
00:56:37.144 : en:00:56:37.144
01:07:20.411 : en:01:07:20.411
01:17:10.751 : en:01:17:10.751
01:26:22.803 : en:01:26:22.803
01:33:41.616 : en:01:33:41.616
01:43:15.147 : en:01:43:15.147

Скриншоты

Other forum [Profile] [PM]
Display posts from previous:    
Reply to topic

The time now is: Today 09:38

All times are GMT + 3 Hours



You cannot post new topics in this forum
You cannot reply to topics in this forum
You cannot edit your posts in this forum
You cannot delete your posts in this forum
You cannot vote in polls in this forum
You cannot attach files in this forum
You cannot download files in this forum