Today is a free download without charge Download

Шкала агрессии / The Aggression Scale (Стивен С. Миллер / Steven C. Miller) [2012, США, боевик, триллер, криминал, BDRip 1080p] VO (Хихикающий доктор) + Original (Eng)

Reply to topic
 
Author
Message

Omen ®

Longevity: 8 years 5 months

Posts: 181087

Торрент-статистика

Post 30-Jan-2013 01:36

[Quote]

Шкала агрессии / The Aggression Scale Страна: США
Студия: Snowfort Pictures, Site B, ...
Жанр: боевик, триллер, криминал
Год выпуска: 2012
Продолжительность: 01:25:16
Перевод: Одноголосый закадровый Хихикающий доктор (по переводу от МЕГАПЫХАРЬ)
Cубтитры: нет
Оригинальная аудиодорожка: английский
Режиссер: Стивен С. Миллер / Steven C. Miller
В ролях: Фаббианн Терез, Райан Хартвиг, Дэна Эшбрук, Дерек Мирс, Джейкоб Рейнольдс, Джозеф МакКелхир, Бойд Кестнер, Лиза Ротонди, Рэй Уайз, Эбен Костбар
Описание:
Босс мафии обнаруживает, что у него украли полмиллиона долларов и отправляет четырех наемных убийц отправить «сообщение» семьям похитителей. Однако в одном из домов гангстеры встречают подростка по имени Оуэн. Оуэн имеет склонность к насилию и умеет создавать смертельные ловушки.
- || -Тип релиза: BDRip 1080p (рип от HDS)
Контейнер: MKV
Видео: AVC (x264), 1920x800 (2,40:1) at 23,976 fps, 9500 Кbps, 0.258 bpp
Аудио 1: AC3; 192 Kbps; CBR; 2 ch; 48 khz | VO - xixidok |
Аудио 2: DTS; 1536 Kbps; CBR; 6 ch; 48 khz; 24 bit | Английский |

Скриншоты || x264 Info || MediaInfo || Notes

Notes:

Цитата:
  • Аудио дорожка №1 взята с этой раздачи, thx: GORENOISE

MediaInfo

Код:
Общее
Уникальный идентификатор                 : 234367283521879680752859690734792901662 (0xB0517F36EEA18B288DB70B48E5C6841E)
Полное имя                               : Шкала агрессии.2012.L1.1080p.BluRay.x264-HDS.mkv
Формат                                   : Matroska
Версия формата                           : Version 4 / Version 2
Размер файла                             : 6,66 Гбайт
Продолжительность                        : 1 ч. 25 м.
Общий поток                              : 11,2 Мбит/сек
Название фильма                          : profile.php?mode=viewprofile&u=22488948
Дата кодирования                         : UTC 2013-01-27 07:42:41
Программа кодирования                    : mkvmerge v6.0.0 ('Coming Up For Air') built on Jan 20 2013 09:52:00
Библиотека кодирования                   : libebml v1.3.0 + libmatroska v1.4.0
Видео
Идентификатор                            : 1
Формат                                   : AVC
Формат/Информация                        : Advanced Video Codec
Профиль формата                          : [email protected]
Параметр CABAC формата                   : Да
Параметр ReFrames формата                : 5 кадров
Идентификатор кодека                     : V_MPEG4/ISO/AVC
Продолжительность                        : 1 ч. 25 м.
Битрейт                                  : 9500 Кбит/сек
Ширина                                   : 1920 пикселей
Высота                                   : 800 пикселей
Соотношение сторон                       : 2,40:1
Частота кадров                           : 23,976 кадра/сек
Цветовое пространство                    : YUV
Субдискретизация насыщенности            : 4:2:0
Битовая глубина                          : 8 бит
Тип развёртки                            : Прогрессивная
Бит/(Пиксели*Кадры)                      : 0.258
Размер потока                            : 5,52 Гбайт (83%)
Библиотека кодирования                   : x264 core 129 r2230 1cffe9f
Настройки программы                      : cabac=1 / ref=5 / deblock=1:-3:-3 / analyse=0x3:0x113 / me=umh / subme=10 / psy=1 / psy_rd=1.20:0.00 / mixed_ref=1 / me_range=32 / chroma_me=1 / trellis=2 / 8x8dct=1 / cqm=0 / deadzone=21,11 / fast_pskip=0 / chroma_qp_offset=-2 / threads=12 / lookahead_threads=2 / sliced_threads=0 / nr=0 / decimate=1 / interlaced=0 / bluray_compat=0 / constrained_intra=0 / bframes=9 / b_pyramid=2 / b_adapt=2 / b_bias=0 / direct=3 / weightb=1 / open_gop=0 / weightp=2 / keyint=250 / keyint_min=23 / scenecut=40 / intra_refresh=0 / rc=2pass / mbtree=0 / bitrate=9500 / ratetol=1.0 / qcomp=0.60 / qpmin=0 / qpmax=69 / qpstep=4 / cplxblur=20.0 / qblur=0.5 / ip_ratio=1.40 / pb_ratio=1.30 / aq=1:1.10
Язык                                     : English
Default                                  : Да
Forced                                   : Нет
Аудио #1
Идентификатор                            : 2
Формат                                   : AC-3
Формат/Информация                        : Audio Coding 3
Расширение режима                        : CM (complete main)
Идентификатор кодека                     : A_AC3
Продолжительность                        : 1 ч. 25 м.
Вид битрейта                             : Постоянный
Битрейт                                  : 192 Кбит/сек
Каналы                                   : 2 канала
Расположение каналов                     : Front: L R
Частота                                  : 48,0 КГц
Битовая глубина                          : 16 бит
Метод сжатия                             : С потерями
Размер потока                            : 117 Мбайт (2%)
Заголовок                                : VO [xixdok]
Язык                                     : Russian
Default                                  : Да
Forced                                   : Нет
Аудио #2
Идентификатор                            : 3
Формат                                   : DTS
Формат/Информация                        : Digital Theater Systems
Идентификатор кодека                     : A_DTS
Продолжительность                        : 1 ч. 25 м.
Вид битрейта                             : Постоянный
Битрейт                                  : 1510 Кбит/сек
Каналы                                   : 6 каналов
Расположение каналов                     : Front: L C R, Side: L R, LFE
Частота                                  : 48,0 КГц
Битовая глубина                          : 24 бит
Метод сжатия                             : С потерями
Размер потока                            : 921 Мбайт (13%)
Язык                                     : English
Default                                  : Нет
Forced                                   : Нет
Меню
00:00:00.000                             : en:00:00:00.000
00:09:22.437                             : en:00:09:22.437
00:13:36.733                             : en:00:13:36.733
00:21:00.509                             : en:00:21:00.509
00:27:29.857                             : en:00:27:29.857
00:33:21.750                             : en:00:33:21.750
00:41:29.904                             : en:00:41:29.904
00:49:32.428                             : en:00:49:32.428
00:57:43.043                             : en:00:57:43.043
01:03:16.167                             : en:01:03:16.167
01:11:15.104                             : en:01:11:15.104
01:22:10.008                             : en:01:22:10.008

x264 Info

x264 [info]: frame I:914 Avg QP:12.39 size:187803
x264 [info]: frame P:34017 Avg QP:14.63 size: 81136
x264 [info]: frame B:87752 Avg QP:15.73 size: 35717
Other forum [Profile] [PM]
Display posts from previous:    
Reply to topic

The time now is: Today 00:51

All times are GMT + 3 Hours



You cannot post new topics in this forum
You cannot reply to topics in this forum
You cannot edit your posts in this forum
You cannot delete your posts in this forum
You cannot vote in polls in this forum
You cannot attach files in this forum
You cannot download files in this forum