Сегодня идет свободное скачивание без начисления Download

Щорс (полная версия) (1939) [H.264] DVDRip

Ответить на тему
 
Автор
Сообщение

Omen ®

Стаж: 6 лет

Сообщений: 184329

Торрент-статистика

Пост 30-Янв-2013 00:56

[Цитировать]

-Щорс (полная версия) (1939) [H.264] DVDRip- Русское название: Щорс
Производство: Киевская киностудия
Год выпуска: 1939
Жанр: Военный, исторический, биографический
Описание фильма:
Личность Щорса Николая Александровича очень неоднозначна в истории страны.
Лента с обилием великолепно поставленных батальных сцен рассказывает о полководце Николае Щорсе (1895-1919), легендарном герое гражданской войны. Действие происходит на Украине в 1919 году, когда войска красных шли к Киеву. Предстояли бои с войсками Петлюры и Драгомирова...
Режиссер: Александр Довженко
Актеры: Александр Хвыля, Дмитрий Милютенко,Евгений Самойлов, Иван Скуратов, Лука Ляшенко, Нина Никитина, Федор Ищенко, Ганна Борисоглебская,Сергей Комаров, Александр Гречаный, Николай Макаренко, Георгий Полежаев, Петр Масоха, Габриэль Нелидов
Продолжительность: 02:14:32

Видеокодек: MPEG-4 AVC/H.264
Битрейт видео: ~1952 Кбит/сек
Размер кадра: 768x576
Качество видео: DVDRip
Аудиокодек: AC3 2.0
Битрейт аудио: 224 Кбит/сек

Знаете ли вы, что:

Личность Николая Александровича Щорса очень неоднозначна, а обстоятельства смерти остались загадкой.Официальная версия о том, что Щорс погиб в бою от пули петлюровского пулемётчика, с началом «оттепели» 1960-х годов стала подвергаться критике.Первоначально исследователи инкриминировали убийство командира только командующему Харьковским военным округом Ивану Дубовому, который в годы Гражданской войны был заместителем Николая Щорса в 44-й дивизии. В сборнике 1935 года «Легендарный начдив» помещено свидетельство Ивана Дубового: «Противник открыл сильный пулемётный огонь и, особенно помню, проявлял „лихость“ один пулемёт у железнодорожной будки… Щорс взял бинокль и начал смотреть туда, откуда шёл пулемётный огонь. Но прошло мгновение, и бинокль из рук Щорса упал на землю, голова Щорса тоже…». Голову смертельно раненного Щорса бинтовал Дубовой. Щорс умер у него на руках. «Пуля вошла спереди, — пишет Дубовой, — и вышла сзади», хотя он не мог не знать, что входное пулевое отверстие меньше выходного. Когда медсестра Богунского полка Анна Розенблюм хотела сменить первую, весьма поспешную повязку на голове уже мёртвого Щорса на более аккуратную, Дубовой не разрешил. По распоряжению Дубового тело Щорса без медицинского освидетельствования отправили для подготовки к захоронению. Свидетелем гибели Щорса был не только Дубовой. Рядом находились командир Богунского полка Казимир Квятык и уполномоченный реввоенсовета 12-й армии Павел Танхиль-Танхилевич, посланный с инспекцией членом РВС 12-й армии Семёном Араловым, ставленником Троцкого.Вероятным исполнителем убийства красного командира называется Павел Самуилович Танхиль-Танхилевич. Ему было двадцать шесть лет, родился он в Одессе, закончил гимназию, разговаривал по-французски и по-немецки. Летом 1919 года стал политическим инспектором Реввоенсовета 12-й армии. Через два месяца после гибели Щорса он уехал с Украины и прибыл на Южный фронт в качестве старшего цензора-контролёра Военно-цензурного отдела Реввоенсовета 10-й армии.Эксгумация тела, произведённая в 1949 году в Куйбышеве при перезахоронении, подтвердила, что он был убит с близкого расстояния выстрелом в затылок. Под Ровно позже был убит щорсовец Тимофей Черняк — командир Новгород-Северского полка. Потом умер Василий Боженко, командир бригады. Его отправили в Житомир (по официальной версии, умер в Житомире от воспаления лёгких). Оба были ближайшими сподвижниками Николая Щорса.

MediaInfo:

Общее
Уникальный идентификатор : 168348648403719580577546155723716462494 (0x7EA6C532C2870C1E037BA147C20E879E)
Полное имя : G:\!V\2013\Щорс\Щорс (1939) DVDRip\Щорс (1939) [H.264] DVDRip .mkv
Формат : Matroska
Версия формата : Version 2
Размер файла : 2,09 Гбайт
Продолжительность : 2 ч. 14 м.
Общий поток : 2220 Кбит/сек
Программа кодирования : Lavf51.12.1
Библиотека кодирования : Lavf51.12.1
Видео
Идентификатор : 1
Формат : AVC
Формат/Информация : Advanced Video Codec
Профиль формата : [url=mailto:[email protected]][email protected][/url]
Параметр CABAC формата : Нет
Параметр ReFrames формата : 2 кадра
Параметр GOP формата : M=1, N=12
Идентификатор кодека : V_MPEG4/ISO/AVC
Продолжительность : 2 ч. 14 м.
Битрейт : 1952 Кбит/сек
Ширина : 768 пикселей
Высота : 576 пикселей
Соотношение сторон : 4:3
Режим частоты кадров : Постоянный
Частота кадров : 23,976 кадра/сек
Стандарт вещания : NTSC
Цветовое пространство : YUV
Субдискретизация насыщенности : 4:2:0
Битовая глубина : 8 бит
Тип развёртки : Прогрессивная
Бит/(Пиксели*Кадры) : 0.184
Размер потока : 1,83 Гбайт (88%)
Default : Да
Forced : Нет
Основные цвета : BT.601 NTSC
Характеристики трансфера : BT.601
Коэффициенты матрицы : BT.601
Аудио
Идентификатор : 2
Формат : AC-3
Формат/Информация : Audio Coding 3
Расширение режима : CM (complete main)
Параметр Endianness формата : Big
Идентификатор кодека : A_AC3
Продолжительность : 2 ч. 14 м.
Вид битрейта : Постоянный
Битрейт : 224 Кбит/сек
Каналы : 2 канала
Расположение каналов : Front: L R
Частота : 48,0 КГц
Битовая глубина : 16 бит
Метод сжатия : С потерями
Размер потока : 216 Мбайт (10%)
Default : Да
Forced : Нет
Скриншоты:
         
         
Время раздачи: С 10:00 до 23:00
Щорс на NNM-CLUB
Вне форума [Профиль] [ЛС]
Показать сообщения:    
Ответить на тему

Текущее время: Сегодня 19:29

Часовой пояс: GMT + 3



Вы не можете начинать темы
Вы не можете отвечать на сообщения
Вы не можете редактировать свои сообщения
Вы не можете удалять свои сообщения
Вы не можете голосовать в опросах
Вы не можете прикреплять файлы к сообщениям
Вы не можете скачивать файлы