Today is a free download without charge Download

Ночные ласточки / Серии: 1-2 из 16 (Михаил Кабанов (II)) [2013, Боевик, мелодрама, HDTVRip - AVC]

Reply to topic
 
Author
Message

Omen ®

Longevity: 8 years 11 months

Posts: 181086

Торрент-статистика

Post 29-Jan-2013 21:32

[Quote]

Ночные ласточки- Год выпуска: 2013
Производство: Россия, Star Media
Жанр: Боевик, мелодрама
Продолжительность: ~ 00:47:00
Субтитры: нет-Режиссёр: Михаил Кабанов (II)-В ролях: Татьяна Арнтгольц, Елизавета Нилова, Екатерина Олькина, Олеся Фаттахова, Мария Пирогова, Елена Куликова, Денис Никифоров, Михаил Евланов, Евгений Ганелин, Игорь Савочкин, Анатолий Пашинин, Дмитрий Мазуров, Олег Гераськин, Владимир Капустин (II), Александр Новик, Константин Спасский, Наталья Людскова, Анатолий Завьялов, Алексей Медведев, Максим Студеновский, Евгения Бурдихина, Лариса Маркина, Константин Шелягин, Дмитрий Лавров (III), Елисей Тарасенко, Надежда Евтехова, Игорь Теплов, Александра Мареева (II), Юлия Ковалева, Виктор Хориняк, Виктор Либеров, Елена Медведева, Валерий Афанасьев, Константин Демидов (II)-Описание: Сообщение о войне разносилось с огромной скоростью. Эта страшная весть не оставляла равнодушными никого. Мужчины уходили на фронт тысячами, но враг очень быстро наступал и с каждым днём оккупировал всё больше и больше земли нашей родины. На плечи женщин легла непосильная ноша - это не только работа в госпиталях и фабриках, а и на заводах у тяжёлых станков, также во всем помогали и дети. Вначале октября 1941 года был подписан Сталиным приказ о сформировании женских авиационных полков. Мужественные девушки наравне с мужчинами наносили сокрушительные удары по врагу. не жалея сил, падая с ног то усталости на ночных бомбардировщиках "ПО-2" взлетая по первому приказу, они разрушали переправы и оборонительные сооружения, уничтожали технику, доставляли данные о скоплении фашистских войск. Порой женщины хитростью и смекалкой помогали в тяжелых ситуациях. Фашисты стали называть летчиц "Ночными ласточками", а мужчины боевые товарищи испытывали гордость и уважение за настоящих русских женщин. 46-й Гвардейский бомбардировочный Таманский полк прошел боевой путь от Сальских степей и Дона до фашистской Германии. Полк совершил 24 тысячи боевых вылетов, в нем было 25 женщин Героев Советского Союза, многие посмертно.-Доп. Информация: Спасибо mydimka за предоставленный исходник!-Любая реклама ОТСУТСТВУЕТ!!!-Сэмпл-Качество: HDTVRip - AVC
Формат: MKV
Видео кодек: H.264
Аудио кодек: AC3
Видео: x264, 1024 х 572 (16:9), 25,000 кадр/сек, ~ 1606 Кбит/сек, ~ 0.110 bit/pixel
Аудио: AC3, 48.0 KHz, 2 канала(ов), 256 kbs

MI

Полное имя : Ночные ласточки.02 серия.2013.HDTVRip-AVC.Metla111.mkv
Формат : Matroska
Версия формата : Version 2
Размер файла : 724 Мбайт
Продолжительность : 54 м.
Общий поток : 1864 Кбит/сек
Дата кодирования : UTC 2013-01-29 11:21:28
Программа кодирования : mkvmerge v5.8.0 ('No Sleep / Pillow') built on Sep 2 2012 15:37:04
Библиотека кодирования : libebml v1.2.3 + libmatroska v1.3.0
Видео
Идентификатор : 1
Формат : AVC
Формат/Информация : Advanced Video Codec
Профиль формата : [email protected]
Параметр CABAC формата : Да
Параметр ReFrames формата : 12 кадров
Идентификатор кодека : V_MPEG4/ISO/AVC
Продолжительность : 54 м.
Битрейт : 1606 Кбит/сек
Ширина : 1024 пикселя
Высота : 572 пикселя
Соотношение сторон : 16:9
Режим частоты кадров : Постоянный
Частота кадров : 25,000 кадров/сек
Цветовое пространство : YUV
Субдискретизация насыщенности : 4:2:0
Битовая глубина : 8 бит
Тип развёртки : Прогрессивная
Бит/(Пиксели*Кадры) : 0.110
Размер потока : 610 Мбайт (84%)
Библиотека кодирования : x264 core 125 r2208 d9d2288
Настройки программы : cabac=1 / ref=12 / deblock=1:-3:-3 / analyse=0x3:0x113 / me=umh / subme=9 / psy=1 / psy_rd=1.00:0.20 / mixed_ref=1 / me_range=32 / chroma_me=1 / trellis=2 / 8x8dct=1 / cqm=0 / deadzone=21,11 / fast_pskip=1 / chroma_qp_offset=-3 / threads=6 / lookahead_threads=1 / sliced_threads=0 / nr=0 / decimate=0 / interlaced=0 / bluray_compat=0 / constrained_intra=0 / bframes=10 / b_pyramid=2 / b_adapt=2 / b_bias=0 / direct=3 / weightb=1 / open_gop=0 / weightp=2 / keyint=250 / keyint_min=25 / scenecut=40 / intra_refresh=0 / rc=2pass / mbtree=0 / bitrate=1606 / ratetol=1.0 / qcomp=0.70 / qpmin=0 / qpmax=69 / qpstep=4 / cplxblur=20.0 / qblur=0.5 / ip_ratio=1.40 / pb_ratio=1.30 / aq=1:1.00
Default : Да
Forced : Нет
Основные цвета : BT.709
Характеристики трансфера : BT.709
Коэффициенты матрицы : BT.709
Аудио
Идентификатор : 2
Формат : AC-3
Формат/Информация : Audio Coding 3
Расширение режима : CM (complete main)
Параметр Endianness формата : Big
Идентификатор кодека : A_AC3
Продолжительность : 54 м.
Вид битрейта : Постоянный
Битрейт : 256 Кбит/сек
Каналы : 2 канала
Расположение каналов : Front: L R
Частота : 48,0 КГц
Битовая глубина : 16 бит
Метод сжатия : С потерями
Размер потока : 99,4 Мбайт (14%)
Default : Да
Forced : Нет

Log - x264

raw [info]: 1024x572p 1:1 @ 25/1 fps (cfr)
x264 [info]: using SAR=1/1
x264 [info]: using cpu capabilities: MMX2 SSE2Fast SSSE3 FastShuffle SSE4.2
x264 [info]: profile High, level 4.0
x264 [info]: frame I:670 Avg QP:19.35 size: 64094
x264 [info]: frame P:18444 Avg QP:21.82 size: 17749
x264 [info]: frame B:62350 Avg QP:23.83 size: 4553
x264 [info]: consecutive B-frames: 1.5% 2.4% 4.4% 44.5% 15.2% 27.5% 2.4% 1.8% 0.3% 0.1% 0.0%
x264 [info]: mb I I16..4: 10.8% 72.8% 16.4%
x264 [info]: mb P I16..4: 2.2% 8.4% 0.9% P16..4: 49.5% 19.6% 11.0% 0.0% 0.0% skip: 8.5%
x264 [info]: mb B I16..4: 0.2% 0.5% 0.0% B16..8: 43.9% 4.8% 1.0% direct: 4.1% skip:45.5% L0:41.8% L1:52.8% BI: 5.5%
x264 [info]: 8x8 transform intra:72.6% inter:66.3%
x264 [info]: direct mvs spatial:98.3% temporal:1.7%
x264 [info]: coded y,uvDC,uvAC intra: 76.4% 67.9% 32.8% inter: 18.3% 19.4% 3.6%
x264 [info]: i16 v,h,dc,p: 36% 15% 12% 37%
x264 [info]: i8 v,h,dc,ddl,ddr,vr,hd,vl,hu: 9% 7% 6% 10% 15% 14% 14% 12% 13%
x264 [info]: i4 v,h,dc,ddl,ddr,vr,hd,vl,hu: 11% 7% 4% 10% 15% 15% 14% 12% 14%
x264 [info]: i8c dc,h,v,p: 43% 25% 19% 13%
x264 [info]: Weighted P-Frames: Y:8.0% UV:3.8%
x264 [info]: ref P L0: 45.6% 12.0% 17.3% 5.8% 5.0% 3.5% 3.3% 1.7% 1.7% 1.3% 1.4% 1.3% 0.1% 0.0%
x264 [info]: ref B L0: 83.1% 8.4% 3.2% 1.5% 1.1% 0.9% 0.7% 0.4% 0.4% 0.3% 0.2%
x264 [info]: ref B L1: 95.2% 4.8%
x264 [info]: kb/s:1606.06

Скриншоты

Внимание ! Раздача ведётся путём добавления новых серий

Внимание! Раздача ведётся путём добавления новых серий; при каждом добавлении создаётся новый торрент. Чтобы начать докачку новой серии, пользователям необходимо сделать следующее:
(1) остановить скачивание,
(2) удалить старый торрент у себя из клиента (старые серии удалять не надо),
(3) скачать новый торрент и запустить его у себя в клиенте вместо старого, при этом указать клиенту путь в старую папку куда и должно происходить скачивание новых серий.
Ваш клиент при этом должен произвести хеширование (проверку) старой папки (если не производит сам - помогите ему сделать это), и будет докачивать только те серии которых у вас ещё нет. Старые серии при этом не удаляются, а продолжают раздаваться!
Если вы уже удалили старые серии, то предотвратить повторную закачку старых серий можно, отжав галочку в соответствующих местах при запуске нового торрента. По возможности, желательно не удалять старые серии как можно дольше чтобы релизёр не столько продолжал раздавать старые серии, а смог сконцентрироваться на новых.
Other forum [Profile] [PM]
Display posts from previous:    
Reply to topic

The time now is: Today 11:38

All times are GMT + 3 Hours



You cannot post new topics in this forum
You cannot reply to topics in this forum
You cannot edit your posts in this forum
You cannot delete your posts in this forum
You cannot vote in polls in this forum
You cannot attach files in this forum
You cannot download files in this forum