Today is a free download without charge Download

Призрак оперы / The Phantom of the Opera (Дуайт Х. Литтл / Dwight H. Little) [1989, США, ужасы, драма, музыка, BDRip 1080p] AVO (Гаврилов) + Original Eng

Reply to topic
 
Author
Message

Omen ®

Longevity: 8 years 5 months

Posts: 181087

Торрент-статистика

Post 29-Jan-2013 21:32

[Quote]

Призрак оперы / The Phantom of the Opera«Robert Englund... was 'Freddy' now he's the Phantom of the Opera! An all new nightmare!»- Год выпуска: 1989
Страна: США
Жанр: ужасы, драма, музыка
Продолжительность: 01:33:04
Перевод: Авторский (одноголосый закадровый) Гаврилов-Режиссер: Дуайт Х. Литтл / Dwight H. Little-В ролях: Роберт Инглунд, Джилл Шолен, Алекс Хайд-Вайт, Билл Найи, Стефани Лоуренс, Теренс Харви, Натан Льюис, Питер Клэпэм, Молли Шеннон, Эмма Роусон-Описание:Талантливый музыкант продал свою душу дьяволу, чтобы публика полюбила его. И дьявол выполнил его желание — публика полюбила его, но только за его музыку, ибо лицо композитора дьявол жутко обезобразил. Убить несчастного можно, только уничтожив ноты его произведений.
Молодая певица Кристин Дэй находит в библиотеке полуистлевшие и опаленные огнем отрывки из оперы, поет их на прослушивании и переносится в Лондон XIX века, где становится объектом страстной любви этого самого музыканта, называемого всеми Призраком Оперы. Обезображенный, он вынужден скрывать свое лицо под маской, а в сердце горит огонь желания — именно эта певица является вдохновением, необходимым для написания его музыки.
Он убивает всех, кто стоит на пути ее карьеры, убивает зверски, сдирая с жертв кожу. Только с ней он должен стать одним целым. Но Кристин любит другого.-Сэмпл: http://multi-up.com/824058-Тип релиза: BDRip 1080p
Контейнер: MKV-Видео: 1920x1040, 23.976 fps, 9779 Kbps, 0.204 bit/pixel
Аудио#1 Russian: AC3, 48 kHz, 2 channels, 192 Kbps
Аудио#1 English: DTS, 48 kHz, 2 channels, 1510 kbps-

MediaInfo

Complete name : D:\Призрак оперы (1989. The Phantom of the Opera).mkv
Format : Matroska
File size : 7.61 GiB
Duration : 1h 33mn
Overall bit rate : 11.7 Mbps
Movie name : Phantom der Oper (1989)
Encoded date : UTC 2013-01-29 13:43:10
Writing application : mkvmerge v4.2.0 ('No Talking') built on Jul 28 2010 18:38:23
Writing library : libebml v1.0.0 + libmatroska v1.0.0
Video
ID : 1
Format : AVC
Format/Info : Advanced Video Codec
Format profile : [email protected]
Format settings, CABAC : Yes
Format settings, ReFrames : 4 frames
Codec ID : V_MPEG4/ISO/AVC
Duration : 1h 33mn
Bit rate : 9 779 Kbps
Width : 1 920 pixels
Height : 1 040 pixels
Display aspect ratio : 16:9
Frame rate : 23.976 fps
Color space : YUV
Chroma subsampling : 4:2:0
Bit depth : 8 bits
Scan type : Progressive
Bits/(Pixel*Frame) : 0.204
Stream size : 6.36 GiB (83%)
Title : Phantom der Oper (1989)
Writing library : x264 core 128 r2216 198a7ea
Encoding settings : cabac=1 / ref=4 / deblock=1:-1:-1 / analyse=0x3:0x133 / me=umh / subme=7 / psy=1 / psy_rd=1.00:0.15 / mixed_ref=1 / me_range=16 / chroma_me=1 / trellis=1 / 8x8dct=1 / cqm=0 / deadzone=21,11 / fast_pskip=0 / chroma_qp_offset=-3 / threads=12 / lookahead_threads=2 / sliced_threads=0 / nr=0 / decimate=1 / interlaced=0 / bluray_compat=0 / constrained_intra=0 / bframes=3 / b_pyramid=2 / b_adapt=1 / b_bias=0 / direct=3 / weightb=1 / open_gop=0 / weightp=2 / keyint=240 / keyint_min=23 / scenecut=40 / intra_refresh=0 / rc_lookahead=40 / rc=crf / mbtree=1 / crf=20.0 / qcomp=0.60 / qpmin=0 / qpmax=69 / qpstep=4 / ip_ratio=1.40 / aq=1:1.00
Audio #1
ID : 2
Format : AC-3
Format/Info : Audio Coding 3
Mode extension : CM (complete main)
Muxing mode : Header stripping
Codec ID : A_AC3
Duration : 1h 33mn
Bit rate mode : Constant
Bit rate : 192 Kbps
Channel(s) : 2 channels
Channel positions : Front: L R
Sampling rate : 48.0 KHz
Bit depth : 16 bits
Compression mode : Lossy
Stream size : 128 MiB (2%)
Title : AVO (Гаврилов)
Language : Russian
Audio #2
ID : 3
Format : DTS
Format/Info : Digital Theater Systems
Muxing mode : Header stripping
Codec ID : A_DTS
Duration : 1h 33mn
Bit rate mode : Constant
Bit rate : 1 510 Kbps
Channel(s) : 2 channels
Channel positions : Front: L R
Sampling rate : 48.0 KHz
Bit depth : 24 bits
Compression mode : Lossy
Delay relative to video : 11ms
Stream size : 1 005 MiB (13%)
Title : DTS
Language : English
Menu
00:00:00.000 : de:00:00:00.000
00:06:48.074 : de:00:06:48.074
00:11:15.341 : de:00:11:15.341
00:19:07.730 : de:00:19:07.730
00:29:17.673 : de:00:29:17.673
00:36:34.943 : de:00:36:34.943
00:45:10.666 : de:00:45:10.666
00:55:15.812 : de:00:55:15.812
01:00:50.856 : de:01:00:50.856
01:07:37.345 : de:01:07:37.345
01:21:48.237 : de:01:21:48.237
01:28:56.289 : de:01:28:56.289

Скриншоты

Other forum [Profile] [PM]
Display posts from previous:    
Reply to topic

The time now is: Today 11:28

All times are GMT + 3 Hours



You cannot post new topics in this forum
You cannot reply to topics in this forum
You cannot edit your posts in this forum
You cannot delete your posts in this forum
You cannot vote in polls in this forum
You cannot attach files in this forum
You cannot download files in this forum