Today is a free download without charge Download

Nakka - Фрезеровочная [2013, Death Metal, HDCamRip]

Reply to topic
 
Author
Message

Omen ®

Longevity: 8 years 4 months

Posts: 181087

Торрент-статистика

Post 29-Jan-2013 21:32

[Quote]

Nakka - Фрезеровочная Жанр: Death Metal • Продолжительность: 00:04:26 • Год издания: 2013Качество: HDCamRip • Контейнер: MP4 • Видео кодек: MP4 • Аудиокодек: AACВидео: MP4 1920X1080 (16:9) 11.3mbps 29.970kHz • Аудио: AAC 192kbps 44.1kHz 2chВконтактеMySpaceLastFMRealMusic

Отчёт MediaInfo

ОбщееПолное имя : D:\µTorrent\Nakka - Фрезеровочная.mp4Формат : MPEG-4Профиль формата : Base Media / Version 2Идентификатор кодека : mp42Размер файла : 366 МбайтПродолжительность : 4 м. 26 с.Режим общего битрейта : ПеременныйОбщий поток : 11,5 Мбит/секДата кодирования : UTC 2013-01-29 15:53:28Дата пометки : UTC 2013-01-29 15:54:35Программа кодирования : mp4creator 1.6.1d
ВидеоИдентификатор : 1Формат : MPEG-4 VisualПрофиль формата : [email protected]Параметр BVOP формата : НетПараметр QPel формата : НетПараметр GMC формата : Без точки переходаПараметр матрицы формата : Default (H.263)Идентификатор кодека : 20Продолжительность : 4 м. 26 с.Вид битрейта : ПеременныйБитрейт : 11,3 Мбит/секМаксимальный битрейт : 23,7 Мбит/секШирина : 1920 пикселейВысота : 1080 пикселейСоотношение сторон : 16:9Режим частоты кадров : ПеременныйЧастота кадров : 29,970 кадров/секМинимальная частота кадров : 29,960 кадров/секМаксимальная частота кадров : 29,970 кадров/секЦветовое пространство : YUVСубдискретизация насыщенности : 4:2:0Битовая глубина : 8 битТип развёртки : ПрогрессивнаяМетод сжатия : С потерямиБит/(Пиксели*Кадры) : 0.182Размер потока : 360 Мбайт (98%)Язык : EnglishДата кодирования : UTC 2013-01-29 15:53:28Дата пометки : UTC 2013-01-29 15:54:34
АудиоИдентификатор : 2Формат : AACФормат/Информация : Advanced Audio CodecПрофиль формата : LCИдентификатор кодека : 40Продолжительность : 4 м. 26 с.Продолжительность оригинала : 4 м. 26 с.Вид битрейта : ПеременныйБитрейт : 192 Кбит/секМаксимальный битрейт : 233 Кбит/секКаналы : 2 каналаРасположение каналов : Front: L RЧастота : 44,1 КГцМетод сжатия : С потерямиРазмер потока : 6,02 Мбайт (2%)Размер потока оригинала : 6,03 Мбайт (2%)Язык : EnglishДата кодирования : UTC 2013-01-29 15:54:34Дата пометки : UTC 2013-01-29 15:54:35

Скриншоты

Other forum [Profile] [PM]
Display posts from previous:    
Reply to topic

The time now is: Today 13:01

All times are GMT + 3 Hours



You cannot post new topics in this forum
You cannot reply to topics in this forum
You cannot edit your posts in this forum
You cannot delete your posts in this forum
You cannot vote in polls in this forum
You cannot attach files in this forum
You cannot download files in this forum