Today is a free download without charge Download

Назад в СССР (4 серии из 4) (2010) DVD5

Reply to topic
 
Author
Message

Omen ®

Longevity: 8 years 11 months

Posts: 181086

Торрент-статистика

Post 29-Jan-2013 17:56

[Quote]

-Назад в СССР (4 серии из 4) (2010) DVD5
«Путешествие успешного бизнесмена в 1975 год»
- Русское название: Назад в СССР
Год выпуска: 2010
Производство: Россия, Кинокомпания «Магнум»
Жанр: Мелодрама
Перевод: Не требуется [Русский язык]
Субтитры: Отсутствуют
Режиссер: Валерий Рожнов
Сценарий: Валерий Рожнов
Актеры: Марат Башаров, Карина Андоленко, Евгений Миллер, Владимир Качан, Александр Макогон, Кристина Бабушкина, Сергей Баталов, Анатолий Узденский, Поля Полякова
Описание фильма:
Антон — преуспевающий бизнесмен, переживающий кризис среднего возраста. Он не чувствует себя счастливым, имея все, что он мог бы пожелать. Он много выпивает, и по совету близкого друга, начинает посещать общество анонимных алкоголиков.
Там он знакомится с человеком, называющим себя Сталкером, который предлагает приключение и ощущения, которых он никогда не испытывал. Антон соглашается и очень скоро понимает, что оказался в 1975 году.-
Дата мировой премьеры: 11 декабря 2010
Дата выхода DVD релиза: 24 марта 2011, «Новый Диск»-Продолжительность: 4 серии ~ 00:48:00
Качество видео: DVD5
Видеокодек: MPEG2
Битрейт видео: ~ 3259.66 Кбит/сек
Размер кадра: [email protected]
Аудио : Русский, AC3, 2 ch, 224 Кбит/сек
Доп. материалы на диске: Отсутствуют

DVDInfo

Код:
Title: Назад в СССР (4 серии из 4) (2010) DVD5
Size: 4.34 Gb ( 4 548 050,00 KBytes ) - DVD-5
Enabled regions: 1, 2, 3, 4, 5, 6, 7, 8
VTS_01 :
  Play Length: 00:00:00
  Video: PAL 4:3 (720x576) VBR
VTS_02 :
  Play Length: 00:00:00
  Video: PAL 16:9 (720x576) VBR, Auto Letterboxed
VTS_03 :
  Play Length: 00:00:00
  Video: PAL 16:9 (720x576) VBR, Auto Letterboxed
VTS_04 :
  Play Length: 00:00:00
  Video: PAL 16:9 (720x576) VBR, Auto Letterboxed
VTS_05 :
  Play Length: 00:00:00
  Video: PAL 16:9 (720x576) VBR, Auto Letterboxed
VTS_06 :
  Play Length: 00:00:00
  Video: PAL 16:9 (720x576) VBR, Auto Letterboxed
VTS_07 :
  Play Length: 00:00:00
  Video: PAL 16:9 (720x576) VBR, Auto Letterboxed
VTS_08 :
  Play Length: 00:00:00
  Video: PAL 16:9 (720x576) VBR, Auto Letterboxed
VTS_09 :
  Play Length: 00:00:00
  Video: PAL 16:9 (720x576) VBR, Auto Letterboxed
VTS_10 :
  Play Length: 00:00:00
  Video: PAL 16:9 (720x576) VBR, Auto Letterboxed
VTS_11 :
  Play Length: 00:48:39
  Video: PAL 4:3 (720x576) VBR
  Audio:
      Not specified (Dolby AC3, 2 ch)
VTS_12 :
  Play Length: 00:46:48
  Video: PAL 4:3 (720x576) VBR
  Audio:
      Not specified (Dolby AC3, 2 ch)
VTS_13 :
  Play Length: 00:46:41
  Video: PAL 4:3 (720x576) VBR
  Audio:
      Not specified (Dolby AC3, 2 ch)
VTS_14 :
  Play Length: 00:46:28
  Video: PAL 4:3 (720x576) VBR
  Audio:
      Not specified (Dolby AC3, 2 ch)
* Menus Information *
VIDEO_TS Menu
Video:
      NTSC 4:3 (720x480) VBR
      Auto Pan&Scan, Auto Letterboxed
English Language Unit :
      Title Menu
VTS_01 Menu
Video:
      PAL 4:3 (720x576) VBR
Audio:
      Not specified (Dolby AC3, 2 ch)
English Language Unit :
      Root Menu
      Chapter (PTT) Menu
VTS_02 Menu
Video:
      NTSC 4:3 (720x480) VBR
      Auto Pan&Scan, Auto Letterboxed
English Language Unit :
      Root Menu
      Chapter (PTT) Menu
VTS_03 Menu
Video:
      NTSC 4:3 (720x480) VBR
      Auto Pan&Scan, Auto Letterboxed
English Language Unit :
      Root Menu
      Chapter (PTT) Menu
VTS_04 Menu
Video:
      NTSC 4:3 (720x480) VBR
      Auto Pan&Scan, Auto Letterboxed
English Language Unit :
      Root Menu
      Chapter (PTT) Menu
VTS_05 Menu
Video:
      NTSC 4:3 (720x480) VBR
      Auto Pan&Scan, Auto Letterboxed
English Language Unit :
      Root Menu
      Chapter (PTT) Menu
VTS_06 Menu
Video:
      NTSC 4:3 (720x480) VBR
      Auto Pan&Scan, Auto Letterboxed
English Language Unit :
      Root Menu
      Chapter (PTT) Menu
VTS_07 Menu
Video:
      NTSC 4:3 (720x480) VBR
      Auto Pan&Scan, Auto Letterboxed
English Language Unit :
      Root Menu
      Chapter (PTT) Menu
VTS_08 Menu
Video:
      NTSC 4:3 (720x480) VBR
      Auto Pan&Scan, Auto Letterboxed
English Language Unit :
      Root Menu
      Chapter (PTT) Menu
VTS_09 Menu
Video:
      NTSC 4:3 (720x480) VBR
      Auto Pan&Scan, Auto Letterboxed
English Language Unit :
      Root Menu
      Chapter (PTT) Menu
VTS_10 Menu
Video:
      NTSC 4:3 (720x480) VBR
      Auto Pan&Scan, Auto Letterboxed
English Language Unit :
      Root Menu
      Chapter (PTT) Menu
VTS_11 Menu
Video:
      NTSC 4:3 (720x480) VBR
      Auto Pan&Scan, Auto Letterboxed
English Language Unit :
      Root Menu
      Chapter (PTT) Menu
VTS_12 Menu
Video:
      NTSC 4:3 (720x480) VBR
      Auto Pan&Scan, Auto Letterboxed
English Language Unit :
      Root Menu
      Chapter (PTT) Menu
VTS_13 Menu
Video:
      NTSC 4:3 (720x480) VBR
      Auto Pan&Scan, Auto Letterboxed
English Language Unit :
      Root Menu
      Chapter (PTT) Menu
VTS_14 Menu
Video:
      NTSC 4:3 (720x480) VBR
      Auto Pan&Scan, Auto Letterboxed
English Language Unit :
      Root Menu
      Chapter (PTT) Menu

MediaInfo

Код:
Общее
Полное имя                               : E:\Раздачи\Видео\Назад в СССР (4 серии из 4) (2010) DVD5\VIDEO_TS\VTS_11_1.VOB
Формат                                   : MPEG-PS
Размер файла                             : 1024 Мбайт
Продолжительность                        : 43 м.
Режим общего битрейта                    : Переменный
Общий поток                              : 3293 Кбит/сек
Видео
Идентификатор                            : 224 (0xE0)
Формат                                   : MPEG Video
Версия формата                           : Version 2
Профиль формата                          : [email protected]
Параметр BVOP формата                    : Да
Параметр матрицы формата                 : Выборочная
Продолжительность                        : 43 м.
Вид битрейта                             : Переменный
Битрейт                                  : 3004 Кбит/сек
Максимальный битрейт                     : 9000 Кбит/сек
Ширина                                   : 720 пикселей
Высота                                   : 576 пикселей
Соотношение сторон                       : 4:3
Частота кадров                           : 25,000 кадров/сек
Стандарт вещания                         : PAL
Цветовое пространство                    : YUV
Субдискретизация насыщенности            : 4:2:0
Битовая глубина                          : 8 бит
Тип развёртки                            : Прогрессивная
Порядок развёртки                        : Нижнее поле первое
Метод сжатия                             : С потерями
Бит/(Пиксели*Кадры)                      : 0.290
Размер потока                            : 934 Мбайт (91%)
Аудио
Идентификатор                            : 189 (0xBD)-128 (0x80)
Формат                                   : AC-3
Формат/Информация                        : Audio Coding 3
Расширение режима                        : CM (complete main)
Параметр Endianness формата              : Big
Режим смешивания                         : DVD-Video
Продолжительность                        : 43 м.
Вид битрейта                             : Постоянный
Битрейт                                  : 224 Кбит/сек
Каналы                                   : 2 канала
Расположение каналов                     : Front: L R
Частота                                  : 48,0 КГц
Битовая глубина                          : 16 бит
Метод сжатия                             : С потерями
Размер потока                            : 69,6 Мбайт (7%)
Меню

Скриншоты меню

   
Скриншоты:
       

еще скриншоты

 
         
Other forum [Profile] [PM]
Similar theme
Forum Topic Author Torrent Replies Last Post
./templates/default/images/folder_dl.gif Фантастика, фэнтези, ужасы, мистика Владимир Поселягин | Назад в будущее (2019) [FB2] }{@R0N
1 | 0

0 | 1037

1

2019-06-09 22:46
}{@R0N Latest
./templates/default/images/folder_dl.gif Фантастика, фэнтези, ужасы, мистика Владимир Поселягин | Назад в будущее (2019) [MP3] }{@R0N
1 | 0

0 | 938

1

2019-06-11 23:04
}{@R0N Latest
Display posts from previous:    
Reply to topic

The time now is: Today 11:55

All times are GMT + 3 Hours



You cannot post new topics in this forum
You cannot reply to topics in this forum
You cannot edit your posts in this forum
You cannot delete your posts in this forum
You cannot vote in polls in this forum
You cannot attach files in this forum
You cannot download files in this forum