Сегодня идет свободное скачивание без начисления Download

А если это любовь? (1961) DVD5

Ответить на тему
 
Автор
Сообщение

Omen ®

Стаж: 5 лет 10 месяцев

Сообщений: 184329

Торрент-статистика

Пост 29-Янв-2013 14:52

[Цитировать]

-А если это любовь? (1961) DVD5- Русское название: А если это любовь?
Год выпуска: 1961
Жанр: Драма
Описание фильма:
В центре фильма драматичная любовь подростков — учеников десятого класса Ксении Завьяловой (Жанна Прохоренко) и Бориса Рамзина (Игорь Пушкарев). Сложные взаимоотношения и взаимное непонимание между учениками, учителями и родителями ставят непростые вопросы. Что такое любовь? Неужели ЛЮБИТЬ означает совершать преступление??? Почему никто не понимает, что можно просто любить человека? И что же в этом постыдного? Как может общество убить любовь?! Грубое, ханжеское вмешательство окружающих, увидевших в этом пошлость и даже разврат, нарушило чистые отношения подростков, нанесло тяжелую душевную травму, уничтожило чувство, которое могло бы вырасти в настоящую, большую любовь.
Режиссер: Юлий Райзман
Актеры: Жанна Прохоренко, Игорь Пушкарев, Александра Назарова, Нина Шорина, Юлия Цоглина, Андрей Миронов, Евгений Жариков, Надежда Федосова, Софья Павлова, Виктор Хохряков, Мария Дурасова, Анастасия Георгиевская, Анатолий Голик, Екатерина Мазурова, Мария Андрианова, Алла Попова, Сергей Борисов, Олеся Иванова, Нина Белобородова, Ольга Ножкина, Иван Кузнецов, Лена Шкаликова
Продолжительность: 01:36:11

Видеокодек: MPEG-2
Битрейт видео: ~5000 Кбит/сек
Размер кадра: 720x576
Качество видео: DVD5
Аудиокодек: AC3, 1 ch
Битрейт аудио: 448 Кбит/сек

Знаете ли вы что...

Здесь были первые роли в кино Андрея Миронова и Евгения Жарикова.

DVDInfo:

Title: А если это любовь DVD5
Size: 3.85 Gb ( 4 037 840,00 KBytes ) - DVD-5
Enabled regions: 1, 2, 3, 4, 5, 6, 7, 8
VTS_01 :
Play Length: 00:00:17
Video: PAL 4:3 (720x576) VBR
VTS_02 :
Play Length: 01:36:11+{01:36:11}+{01:36:11}
Video: PAL 4:3 (720x576) VBR
Audio:
Russian (Dolby AC3, 1 ch)
* Menus Information *
VIDEO_TS Menu
Video:
PAL 4:3 (720x576) VBR
English Language Unit :
Title Menu
VTS_01 Menu
Video:
PAL 4:3 (720x576) VBR
Audio:
Not specified (Dolby AC3, 2 ch)
English Language Unit :
Root Menu
VTS_02 Menu
Video:
PAL 4:3 (720x576) VBR
English Language Unit :
Root Menu
Chapter (PTT) Menu

MenuDVD:

       

MediaInfo:

Общее
Полное имя : F:\1112\!\А если это любовь\А если это любовь DVD5\VIDEO_TS\VTS_02_1.VOB
Формат : MPEG-PS
Размер файла : 1024 Мбайт
Продолжительность : 25 м.
Общий поток : 5554 Кбит/сек
Видео
Идентификатор : 224 (0xE0)
Формат : MPEG Video
Версия формата : Version 2
Профиль формата : [email protected]
Параметр BVOP формата : Да
Параметр матрицы формата : Выборочная
Параметр GOP формата : M=3, N=15
Продолжительность : 25 м.
Битрейт : 5000 Кбит/сек
Ширина : 720 пикселей
Высота : 576 пикселей
Соотношение сторон : 4:3
Частота кадров : 25,000 кадров/сек
Стандарт вещания : PAL
Цветовое пространство : YUV
Субдискретизация насыщенности : 4:2:0
Битовая глубина : 8 бит
Тип развёртки : Чересстрочная
Порядок развёртки : Верхнее поле первое
Метод сжатия : С потерями
Бит/(Пиксели*Кадры) : 0.482
Размер потока : 921 Мбайт (90%)
Аудио
Идентификатор : 189 (0xBD)-128 (0x80)
Формат : AC-3
Формат/Информация : Audio Coding 3
Расширение режима : CM (complete main)
Параметр Endianness формата : Big
Режим смешивания : DVD-Video
Продолжительность : 25 м.
Вид битрейта : Постоянный
Битрейт : 448 Кбит/сек
Каналы : 1 канал
Расположение каналов : Front: C
Частота : 48,0 КГц
Битовая глубина : 16 бит
Метод сжатия : С потерями
Задержка видео : -80 мс.
Размер потока : 82,6 Мбайт (8%)
Меню
Скриншоты:
         
         
Вне форума [Профиль] [ЛС]
Показать сообщения:    
Ответить на тему

Текущее время: Сегодня 03:59

Часовой пояс: GMT + 3



Вы не можете начинать темы
Вы не можете отвечать на сообщения
Вы не можете редактировать свои сообщения
Вы не можете удалять свои сообщения
Вы не можете голосовать в опросах
Вы не можете прикреплять файлы к сообщениям
Вы не можете скачивать файлы