Today is a free download without charge Download

Обратная сторона Луны / Сезон: 1 / Серии: 1-16 из 16 (Aлександр Kотт) [2012, фантастика, триллер, драма, детектив, BDRemux 720p]

Reply to topic
 
Author
Message

Omen ®

Longevity: 8 years 11 months

Posts: 181086

Торрент-статистика

Post 29-Jan-2013 13:04

[Quote]

Oбратная cторона Лyны- Год выпуска: 2012
Страна: Россия / киностудия "Слово"
Жанр: фантастика, триллер, драма, криминал, детектив
Продолжительность: 01:40:00 + 00:55:00 x15-Режиссёр: Aлександр Kотт
В ролях: Павел Деревянко (Михаил), Светлана Смирнова-Марцинкевич (Катя), Иван Шибанов (маньяк), Карина Разумовская (Людмила), Евгений Богомолов (Мишка), Олег Алмазов (Котов), Дмитрий Гусев (Игорь), Александр Ляпин (Степа), Татьяна Чердынцева (парикмахер), Сергей Беляев (Пряхин), Сергей Галахов (Андрей), Ирина Марцинкевич (Екатерина в возрасте)
Описание: Третий год старший лейтенант полиции Михаил Соловьев идет по следу Маньяка, терроризирующего столицу убийствами молодых женщин. Во время операции задержания Маньяк сбивает Соловьева автомобилем.
Придя в себя после аварии, Михаил обнаруживает, что переместился во времени и оказался в 1979 году. Не понимая до конца, что с ним произошло, он, тем не менее, старается адаптироваться к новым обстоятельствам, работая советским милиционером. А попутно пытается выяснить, в чем причина случившейся с ним метаморфозы.-
Релиз: by crazy_gringo-Качество видео: BDRemux 720p
Формат: MKV
Видео: H.264/AVC, 1280x720 (16:9), 23.976 fps, ~5500 kbps, 0.253 bpp
Аудио: AC3 5.1, 48 kHz, 16 bit, 384 kbps-

MediaInfo

General
Complete name : Обратная сторона Луны (2012) BDRemux\Obratnaja.storona.luny.S01E02.720p.BDRemux.mkv
Format : Matroska
Format version : Version 4 / Version 2
File size : 2.32 GiB
Duration : 54mn 19s
Overall bit rate mode : Variable
Overall bit rate : 6 103 Kbps
Movie name : Вторая серия
Encoded date : UTC 2010-02-22 21:41:31
Writing application : mkvmerge v5.9.0 ('On The Loose') built on Dec 9 2012 15:37:01
Writing library : libebml v1.3.0 + libmatroska v1.4.0
Video
ID : 1
Format : AVC
Format/Info : Advanced Video Codec
Format profile : [email protected]
Format settings, CABAC : Yes
Format settings, ReFrames : 3 frames
Codec ID : V_MPEG4/ISO/AVC
Duration : 54mn 19s
Bit rate mode : Variable
Bit rate : 5 598 Kbps
Maximum bit rate : 40.0 Mbps
Width : 1 280 pixels
Height : 720 pixels
Display aspect ratio : 16:9
Frame rate mode : Constant
Frame rate : 23.976 fps
Color space : YUV
Chroma subsampling : 4:2:0
Bit depth : 8 bits
Scan type : Progressive
Bits/(Pixel*Frame) : 0.253
Stream size : 2.12 GiB (92%)
Language : Russian
Default : Yes
Forced : No
Color primaries : BT.709
Transfer characteristics : BT.709
Matrix coefficients : BT.709
Audio
ID : 2
Format : AC-3
Format/Info : Audio Coding 3
Mode extension : CM (complete main)
Format settings, Endianness : Big
Codec ID : A_AC3
Duration : 54mn 19s
Bit rate mode : Constant
Bit rate : 384 Kbps
Channel(s) : 6 channels
Channel positions : Front: L C R, Side: L R, LFE
Sampling rate : 48.0 KHz
Bit depth : 16 bits
Compression mode : Lossy
Delay relative to video : 18ms
Stream size : 149 MiB (6%)
Language : Russian
Default : Yes
Forced : No
- Built with Flash Release
Other forum [Profile] [PM]
Display posts from previous:    
Reply to topic

The time now is: Today 13:54

All times are GMT + 3 Hours



You cannot post new topics in this forum
You cannot reply to topics in this forum
You cannot edit your posts in this forum
You cannot delete your posts in this forum
You cannot vote in polls in this forum
You cannot attach files in this forum
You cannot download files in this forum