Today is a free download without charge Download

Возвращение на базу / Взвейся в небо / R2B: Return 2 Base / Soar Into The Sun (Донг-вон Ким / Dong-won Kim) [2012, Южная Корея, Боевик, драма, BDRip 720p] DVO + Sub Eng

Reply to topic
 
Author
Message

Omen ®

Longevity: 8 years 5 months

Posts: 181087

Торрент-статистика

Post 29-Jan-2013 13:04

[Quote]

Возвращение на базу / Взвейся в небо / R2B: Return 2 Base / Soar Into The Sun
Страна: Южная Корея
Жанр: Боевик, драма
Год выпуска: 2012
Продолжительность: 01:54:56
Перевод: Любительский (двухголосый закадровый) Виктор Ерёменко и Ольга Гринтиева
Cубтитры: английские, китайские
Режиссер: Донг-вон Ким / Dong-won Kim
Оригинальная аудиодорожка: Корейская
В ролях: Рэйн (Ниндзя-Убийца), Joon-sang Yoo, Сюн-Су Ким, Ха-на Ли, Ли Чжон-Сок, Чон Сок Вон, Bong-gi Baek, Soo-ho Ha, Kyeong-hoon Jeong, Се Гён Син
Описание: Летчик-истребитель Чжон Тэ-Хун, служащий в элитном отряде ВВС «Черный Орел», совершил дерзкий поступок, сорвав авиа-шоу. Что он сделал? Всего ничего, чтобы доказать свое мастерство управления истребителем, парень выполнил фигуру высшего пилотажа, которую никто ранее до него не мог исполнить. Все это обрушило на Тэ-Хуна большие неприятности и угрозу увольнения. После этого летчик был вынужден перевестись в авиаотряд F15K, лучшим пилотом которого является Ли Чхоль-Хи.
Тэ-Хун — свободолюбивый летчик, любящий нарушать всевозможные правила и не терпящий над собой давления, а Чхоль-Хи, наоборот, любит следовать всевозможным правилам. Так что конфликт между двумя такими противоположными, но сильными личностями неизбежен. Было решено, что для разрешения конфликта, будут устроены гонки на истребителях, на которых Тэ-Хун прежде не летал.
Парень выбирает себе помощника в виде Ю Се-Ён, девушку-механика, которая является лучшим специалистом в службе технической поддержки. Однажды, неизвестный северокорейский боевой самолет появляется в небе над Сеулом и по тревоге о воздушном нападении был поднят отряд Тэ-Хуна. Им удалось защитить население и предотвратить трагедию, но, при этом они столкнулись с более серьезной проблемой — во время операции один из пилотов Чжи Сок-Хён оказался на враждебной территории. У отряда есть всего 7 минут на то, чтобы завершить беспрецедентную тайную операцию…
Сэмпл
IMDB
КиноПоиск
Тип релиза: BDRip 720p
Контейнер: MKV
Видео: MPEG-4 AVC, 1280x536, 4797 Кбит/сек, 23.976 fps
Аудио 1 Russian: 48 kHz, AC3, 3/2 (L,C,R,l,r) + LFE ch, ~640 kbps DVO GREEN TEA
Аудио 2 Korean: 48 kHz, AC3, 3/2 (L,C,R,l,r) + LFE ch, ~640 kbps

MediaInfo

Общее
Уникальный идентификатор : 197138711611255712362263510601524792222 (0x944F88E7EEA12B679E234839ADD74B9E)
Полное имя : D:\Закачки\Soar.Into.the.Sun.2012.BDRip.720p\Soar.Into.the.Sun.2012.BDRip.720p.mkv
Формат : Matroska
Версия формата : Version 2
Размер файла : 4,89 Гбайт
Продолжительность : 1 ч. 54 м.
Общий поток : 6087 Кбит/сек
Дата кодирования : UTC 2013-01-29 07:50:42
Программа кодирования : mkvmerge v5.0.1 ('Es ist Sommer') built on Oct 9 2011 11:55:43
Библиотека кодирования : libebml v1.2.2 + libmatroska v1.3.0
Видео
Идентификатор : 1
Формат : AVC
Формат/Информация : Advanced Video Codec
Профиль формата : [email protected]
Параметр CABAC формата : Да
Параметр ReFrames формата : 10 кадров
Идентификатор кодека : V_MPEG4/ISO/AVC
Продолжительность : 1 ч. 54 м.
Битрейт : 4797 Кбит/сек
Ширина : 1280 пикселей
Высота : 536 пикселей
Соотношение сторон : 2,35:1
Соотношение сторон в оригинале : 2,40:1
Частота кадров : 24,000 кадра/сек
Цветовое пространство : YUV
Субдискретизация насыщенности : 4:2:0
Битовая глубина : 8 бит
Тип развёртки : Прогрессивная
Бит/(Пиксели*Кадры) : 0.291
Размер потока : 3,76 Гбайт (77%)
Заголовок : [email protected]
Библиотека кодирования : x264 core 125 r2208 d9d2288
Настройки программы : cabac=1 / ref=10 / deblock=1:-3:-3 / analyse=0x3:0x113 / me=umh / subme=10 / psy=1 / psy_rd=1.10:0.15 / mixed_ref=1 / me_range=32 / chroma_me=1 / trellis=2 / 8x8dct=1 / cqm=0 / deadzone=21,11 / fast_pskip=0 / chroma_qp_offset=-2 / threads=12 / lookahead_threads=2 / sliced_threads=0 / nr=0 / decimate=1 / interlaced=0 / bluray_compat=0 / constrained_intra=0 / bframes=6 / b_pyramid=2 / b_adapt=2 / b_bias=0 / direct=3 / weightb=1 / open_gop=0 / weightp=2 / keyint=250 / keyint_min=24 / scenecut=40 / intra_refresh=0 / rc_lookahead=40 / rc=2pass / mbtree=0 / bitrate=4797 / ratetol=1.0 / qcomp=0.60 / qpmin=0 / qpmax=69 / qpstep=4 / cplxblur=20.0 / qblur=0.5 / vbv_maxrate=40000 / vbv_bufsize=30000 / nal_hrd=none / ip_ratio=1.40 / pb_ratio=1.30 / aq=1:0.80
Язык : Korean
Default : Да
Forced : Нет
Аудио #1
Идентификатор : 2
Формат : AC-3
Формат/Информация : Audio Coding 3
Расширение режима : CM (complete main)
Идентификатор кодека : A_AC3
Продолжительность : 1 ч. 54 м.
Вид битрейта : Постоянный
Битрейт : 640 Кбит/сек
Каналы : 6 каналов
Расположение каналов : Front: L C R, Side: L R, LFE
Частота : 48,0 КГц
Битовая глубина : 16 бит
Метод сжатия : С потерями
Размер потока : 526 Мбайт (11%)
Язык : Russian
Default : Да
Forced : Нет
Аудио #2
Идентификатор : 3
Формат : AC-3
Формат/Информация : Audio Coding 3
Расширение режима : CM (complete main)
Идентификатор кодека : A_AC3
Продолжительность : 1 ч. 54 м.
Вид битрейта : Постоянный
Битрейт : 640 Кбит/сек
Каналы : 6 каналов
Расположение каналов : Front: L C R, Side: L R, LFE
Частота : 48,0 КГц
Битовая глубина : 16 бит
Метод сжатия : С потерями
Размер потока : 526 Мбайт (11%)
Заголовок : Korean
Язык : Korean
Default : Нет
Forced : Нет
Текст #1
Идентификатор : 4
Формат : PGS
Режим смешивания : zlib
Идентификатор кодека : S_HDMV/PGS
Идентификатор кодека/Информация : The same subtitle format used on BDs/HD-DVDs
Заголовок : Traditional Chinese
Язык : Chinese
Default : Нет
Forced : Нет
Текст #2
Идентификатор : 5
Формат : PGS
Режим смешивания : zlib
Идентификатор кодека : S_HDMV/PGS
Идентификатор кодека/Информация : The same subtitle format used on BDs/HD-DVDs
Заголовок : English
Язык : English
Default : Нет
Forced : Нет

Скриншот c названием фильма

Скриншоты

Other forum [Profile] [PM]
Display posts from previous:    
Reply to topic

The time now is: Today 05:26

All times are GMT + 3 Hours



You cannot post new topics in this forum
You cannot reply to topics in this forum
You cannot edit your posts in this forum
You cannot delete your posts in this forum
You cannot vote in polls in this forum
You cannot attach files in this forum
You cannot download files in this forum