Today is a free download without charge Download

G3 - Live In Moscow (05.08.2012) (Joe Satriani, Steve Morse (Ex. Deep Purple), Steve Vai (Ex. Whitesnake)) [2012, Rock, HDCam, Blu-ray]

Reply to topic
 
Author
Message

Omen ®

Longevity: 8 years 3 months

Posts: 181087

Торрент-статистика

Post 29-Jan-2013 13:04

[Quote]

G3 - Live In Moscow (05.08.2012) (Joe Satriani, Steve Morse, Steve Vai)
Жанр: Rock
Продолжительность: 03:01:11
Год выпуска: 2012
Описание: G3 - Live In Moscow (05.08.2012)
Steve Morse:
01. Name Dropping
02. Highland Wedding
03. On the Pipe
04. Vista Grande
05. John Deere Letter
06. Baroque 'n Dreams
07. Rising Power
08. StressFest
09. Cruise Control
Steve Vai:
10. The Audience Is Listening
11. The Animal
12. Tender Surrender
13. Building the Church
14. Whispering a Prayer
15. The Crying Machine
16. For the Love of God
Joe Satriani:
17. Flying in a Blue Dream
18. Ice 9
19. Satch Boogie
20. Dream Song
21. Crystal Planet
22. God Is Crying
23. Always with Me, Always with You
24. Surfing with the Alien
G3 Jam:
25. You Really Got Me
26. White Room
27. Rockin' in the Free World
Доп. информация: Данный релиз содержит неофициальную концертную запись группы.Выступление состоялось в Московском Крокус Сити Холле 5-го августа 2012 года.
Качество: Blu-ray
Контейнер: BDMV
Видео кодек: MPEG2
Аудио кодек: AC3
Видео: MPEG-2, 14850 кбит/с, 1920x1080, 29,970 fps
Аудио: АС3, 2 ch, 448 Кбит/с

Отчёт MediaInfo / BDInfo

Disc Title: Blu-RayDisc Size: 21 623 454 376 bytesProtection: AACSBD-Java: NoBDInfo: 0.5.8
Notes:
BDINFO HOME: Cinema Squid http://www.cinemasquid.com/blu-ray/tools/bdinfo
INCLUDES FORUMS REPORT FOR: AVS Forum Blu-ray Audio and Video Specifications Thread http://www.avsforum.com/avs-vb/showthread.php?t=1155731
********************PLAYLIST: 00005.MPLS********************
Код:
Total   Video
Title                                                           Codec   Length  Movie Size      Disc Size       Bitrate Bitrate Main Audio Track                          Secondary Audio Track
-----                                                           ------  ------- --------------  --------------  ------- ------- ------------------                        ---------------------
00005.MPLS                                                      MPEG-2  1:19:22 9 557 913 600   21 623 454 376  16,05   14,85   DD AC3 2.0 448Kbps
Код:
DISC INFO:
Disc Title:     Blu-Ray
Disc Size:      21 623 454 376 bytes
Protection:     AACS
BD-Java:        No
BDInfo:         0.5.8
PLAYLIST REPORT:
Name:                   00005.MPLS
Length:                 1:19:22.924 (h:m:s.ms)
Size:                   9 557 913 600 bytes
Total Bitrate:          16,05 Mbps
VIDEO:
Codec                   Bitrate             Description
-----                   -------             -----------
MPEG-2 Video            14850 kbps          1080i / 29,970 fps / 16:9
AUDIO:
Codec                           Language        Bitrate         Description
-----                           --------        -------         -----------
Dolby Digital Audio             Undetermined    448 kbps        2.0 / 48 kHz / 448 kbps / DN -4dB
FILES:
Name            Time In         Length          Size            Total Bitrate
----            -------         ------          ----            -------------
00005.M2TS      0:00:00.000     1:19:22.924     9 557 913 600   16 054
CHAPTERS:
Number          Time In         Length          Avg Video Rate  Max 1-Sec Rate  Max 1-Sec Time  Max 5-Sec Rate  Max 5-Sec Time  Max 10Sec Rate  Max 10Sec Time  Avg Frame Size  Max Frame Size  Max Frame Time
------          -------         ------          --------------  --------------  --------------  --------------  --------------  --------------  --------------  --------------  --------------  --------------
1               0:00:00.000     0:06:51.644     14 671 kbps     18 233 kbps     00:04:39.479    15 565 kbps     00:01:50.009    15 302 kbps     00:06:16.909    61 181 bytes    369 989 bytes   00:06:26.886
2               0:06:51.644     0:04:30.437     14 797 kbps     18 937 kbps     00:07:44.096    15 787 kbps     00:08:04.150    15 385 kbps     00:07:58.945    61 714 bytes    237 735 bytes   00:07:57.477
3               0:11:22.082     0:06:42.569     14 662 kbps     19 104 kbps     00:16:40.566    15 753 kbps     00:13:59.905    15 461 kbps     00:13:54.934    61 152 bytes    296 357 bytes   00:16:40.666
4               0:18:04.651     0:04:56.463     15 001 kbps     17 526 kbps     00:22:57.042    15 548 kbps     00:18:33.779    15 305 kbps     00:18:28.140    62 567 bytes    292 386 bytes   00:18:38.117
5               0:23:01.114     0:05:34.734     14 840 kbps     19 356 kbps     00:26:20.545    15 883 kbps     00:26:16.541    15 446 kbps     00:26:12.404    61 894 bytes    383 924 bytes   00:23:31.410
6               0:28:35.849     0:07:29.983     14 849 kbps     19 087 kbps     00:34:09.914    15 911 kbps     00:34:05.910    15 326 kbps     00:34:57.462    61 933 bytes    393 937 bytes   00:35:38.136
7               0:36:05.832     0:03:53.767     15 042 kbps     16 719 kbps     00:38:35.312    15 394 kbps     00:38:42.787    15 263 kbps     00:38:39.483    62 737 bytes    370 693 bytes   00:38:36.314
8               0:39:59.599     0:08:22.669     14 899 kbps     19 033 kbps     00:44:16.420    15 830 kbps     00:44:12.616    15 548 kbps     00:44:15.619    62 140 bytes    351 832 bytes   00:40:11.408
9               0:48:22.268     0:07:45.765     14 963 kbps     19 177 kbps     00:54:35.739    15 901 kbps     00:54:31.735    15 508 kbps     00:54:26.730    62 410 bytes    386 811 bytes   00:50:30.527
10              0:56:08.034     0:07:17.537     15 004 kbps     17 522 kbps     00:58:25.969    15 555 kbps     00:58:10.086    15 331 kbps     00:58:05.081    62 577 bytes    323 962 bytes   01:01:38.194
11              1:03:25.572     0:15:57.352     14 781 kbps     18 677 kbps     01:14:07.709    15 868 kbps     01:14:03.806    15 489 kbps     01:13:58.700    61 651 bytes    367 299 bytes   01:12:43.859
STREAM DIAGNOSTICS:
File            PID             Type            Codec           Language                Seconds                 Bitrate                 Bytes           Packets
----            ---             ----            -----           --------                --------------          --------------          -------------   -----
00005.M2TS      4113 (0x1011)   0x02            MPEG-2                                  4762,858                14 850                  8 841 160 155   48 132 785
00005.M2TS      4352 (0x1100)   0x81            AC3             und (Undetermined)      4762,858                448                     266 724 864     1 488 420
QUICK SUMMARY:
Disc Title: Blu-RayDisc Size: 21 623 454 376 bytesProtection: AACSBD-Java: NoPlaylist: 00005.MPLSSize: 9 557 913 600 bytesLength: 1:19:22.924Total Bitrate: 16,05 MbpsVideo: MPEG-2 Video / 14850 kbps / 1080i / 29,970 fps / 16:9Audio: Undetermined / Dolby Digital Audio / 2.0 / 48 kHz / 448 kbps / DN -4dB
********************PLAYLIST: 00003.MPLS********************
Код:
Total   Video
Title                                                           Codec   Length  Movie Size      Disc Size       Bitrate Bitrate Main Audio Track                          Secondary Audio Track
-----                                                           ------  ------- --------------  --------------  ------- ------- ------------------                        ---------------------
00003.MPLS                                                      MPEG-2  0:54:16 6 348 982 272   21 623 454 376  15,60   14,41   DD AC3 2.0 448Kbps
Код:
DISC INFO:
Disc Title:     Blu-Ray
Disc Size:      21 623 454 376 bytes
Protection:     AACS
BD-Java:        No
BDInfo:         0.5.8
PLAYLIST REPORT:
Name:                   00003.MPLS
Length:                 0:54:16.486 (h:m:s.ms)
Size:                   6 348 982 272 bytes
Total Bitrate:          15,60 Mbps
VIDEO:
Codec                   Bitrate             Description
-----                   -------             -----------
MPEG-2 Video            14412 kbps          1080i / 29,970 fps / 16:9
AUDIO:
Codec                           Language        Bitrate         Description
-----                           --------        -------         -----------
Dolby Digital Audio             Undetermined    448 kbps        2.0 / 48 kHz / 448 kbps / DN -4dB
FILES:
Name            Time In         Length          Size            Total Bitrate
----            -------         ------          ----            -------------
00003.M2TS      0:00:00.000     0:54:16.486     6 348 982 272   15 597
CHAPTERS:
Number          Time In         Length          Avg Video Rate  Max 1-Sec Rate  Max 1-Sec Time  Max 5-Sec Rate  Max 5-Sec Time  Max 10Sec Rate  Max 10Sec Time  Avg Frame Size  Max Frame Size  Max Frame Time
------          -------         ------          --------------  --------------  --------------  --------------  --------------  --------------  --------------  --------------  --------------  --------------
1               0:00:00.000     0:00:11.778     8 384 kbps      15 895 kbps     00:00:09.476    8 979 kbps      00:00:06.473    8 743 kbps      00:00:01.801    34 772 bytes    131 191 bytes   00:00:09.509
2               0:00:11.778     0:06:46.639     14 681 kbps     19 193 kbps     00:01:03.029    16 002 kbps     00:00:11.978    15 565 kbps     00:06:02.128    61 232 bytes    255 938 bytes   00:01:00.260
3               0:06:58.418     0:05:44.010     14 654 kbps     18 115 kbps     00:11:00.626    15 670 kbps     00:07:05.224    15 163 kbps     00:10:41.507    61 121 bytes    242 856 bytes   00:10:36.135
4               0:12:42.429     0:09:16.523     14 681 kbps     18 717 kbps     00:21:28.754    15 793 kbps     00:19:37.142    15 508 kbps     00:19:32.304    61 233 bytes    228 261 bytes   00:17:21.040
5               0:21:58.952     0:06:39.866     14 757 kbps     18 126 kbps     00:28:37.382    15 652 kbps     00:22:01.286    15 313 kbps     00:22:01.787    61 547 bytes    251 136 bytes   00:26:33.091
6               0:28:38.818     0:09:33.973     13 666 kbps     19 229 kbps     00:38:08.152    15 520 kbps     00:34:44.048    15 159 kbps     00:28:50.695    56 998 bytes    259 272 bytes   00:38:08.185
7               0:38:12.792     0:05:04.771     14 547 kbps     18 571 kbps     00:39:14.218    15 928 kbps     00:39:00.337    15 359 kbps     00:38:59.303    60 672 bytes    266 452 bytes   00:40:10.408
8               0:43:17.564     0:10:58.922     14 380 kbps     17 586 kbps     00:43:37.181    15 524 kbps     00:43:36.780    15 042 kbps     00:53:04.781    59 982 bytes    284 373 bytes   00:51:56.613
STREAM DIAGNOSTICS:
File            PID             Type            Codec           Language                Seconds                 Bitrate                 Bytes           Packets
----            ---             ----            -----           --------                --------------          --------------          -------------   -----
00003.M2TS      4113 (0x1011)   0x02            MPEG-2                                  3256,453                14 412                  5 866 700 713   31 940 840
00003.M2TS      4352 (0x1100)   0x81            AC3             und (Undetermined)      3256,453                448                     182 364 672     1 017 660
QUICK SUMMARY:
Disc Title: Blu-RayDisc Size: 21 623 454 376 bytesProtection: AACSBD-Java: NoPlaylist: 00003.MPLSSize: 6 348 982 272 bytesLength: 0:54:16.486Total Bitrate: 15,60 MbpsVideo: MPEG-2 Video / 14412 kbps / 1080i / 29,970 fps / 16:9Audio: Undetermined / Dolby Digital Audio / 2.0 / 48 kHz / 448 kbps / DN -4dB
********************PLAYLIST: 00001.MPLS********************
Код:
Total   Video
Title                                                           Codec   Length  Movie Size      Disc Size       Bitrate Bitrate Main Audio Track                          Secondary Audio Track
-----                                                           ------  ------- --------------  --------------  ------- ------- ------------------                        ---------------------
00001.MPLS                                                      MPEG-2  0:47:30 5 712 666 624   21 623 454 376  16,03   14,83   DD AC3 2.0 448Kbps
Код:
DISC INFO:
Disc Title:     Blu-Ray
Disc Size:      21 623 454 376 bytes
Protection:     AACS
BD-Java:        No
BDInfo:         0.5.8
PLAYLIST REPORT:
Name:                   00001.MPLS
Length:                 0:47:30.247 (h:m:s.ms)
Size:                   5 712 666 624 bytes
Total Bitrate:          16,03 Mbps
VIDEO:
Codec                   Bitrate             Description
-----                   -------             -----------
MPEG-2 Video            14831 kbps          1080i / 29,970 fps / 16:9
AUDIO:
Codec                           Language        Bitrate         Description
-----                           --------        -------         -----------
Dolby Digital Audio             Undetermined    448 kbps        2.0 / 48 kHz / 448 kbps / DN -4dB
FILES:
Name            Time In         Length          Size            Total Bitrate
----            -------         ------          ----            -------------
00001.M2TS      0:00:00.000     0:47:30.247     5 712 666 624   16 034
CHAPTERS:
Number          Time In         Length          Avg Video Rate  Max 1-Sec Rate  Max 1-Sec Time  Max 5-Sec Rate  Max 5-Sec Time  Max 10Sec Rate  Max 10Sec Time  Avg Frame Size  Max Frame Size  Max Frame Time
------          -------         ------          --------------  --------------  --------------  --------------  --------------  --------------  --------------  --------------  --------------  --------------
1               0:00:00.000     0:01:22.515     13 737 kbps     17 820 kbps     00:00:30.663    15 414 kbps     00:01:03.963    15 168 kbps     00:01:02.228    57 248 bytes    242 573 bytes   00:01:19.579
2               0:01:22.515     0:05:40.507     14 828 kbps     18 779 kbps     00:01:30.857    15 604 kbps     00:05:14.580    15 338 kbps     00:01:38.465    61 847 bytes    331 572 bytes   00:05:18.818
3               0:07:03.023     0:03:35.215     14 878 kbps     17 850 kbps     00:10:33.165    15 723 kbps     00:08:21.734    15 348 kbps     00:08:16.662    62 052 bytes    229 119 bytes   00:10:35.034
4               0:10:38.238     0:05:21.421     14 790 kbps     18 117 kbps     00:15:26.625    15 459 kbps     00:15:36.702    15 203 kbps     00:10:40.272    61 686 bytes    188 699 bytes   00:12:42.661
5               0:15:59.659     0:05:03.303     14 904 kbps     17 588 kbps     00:18:31.310    15 569 kbps     00:18:27.306    15 313 kbps     00:18:22.301    62 162 bytes    240 973 bytes   00:17:06.525
6               0:21:02.962     0:06:03.396     14 881 kbps     18 548 kbps     00:21:08.834    15 954 kbps     00:21:08.233    15 541 kbps     00:21:08.734    62 068 bytes    221 560 bytes   00:22:59.878
7               0:27:06.359     0:03:43.256     14 902 kbps     17 228 kbps     00:27:46.031    15 381 kbps     00:30:31.863    15 218 kbps     00:28:05.950    62 152 bytes    190 045 bytes   00:27:12.130
8               0:30:49.616     0:07:34.254     14 950 kbps     17 974 kbps     00:36:06.430    15 571 kbps     00:36:02.460    15 361 kbps     00:35:57.555    62 353 bytes    294 198 bytes   00:31:25.884
9               0:38:23.870     0:04:08.348     14 815 kbps     17 649 kbps     00:38:49.026    15 572 kbps     00:40:11.442    15 249 kbps     00:41:50.608    61 791 bytes    179 525 bytes   00:38:54.332
10              0:42:32.218     0:04:58.028     14 791 kbps     18 944 kbps     00:45:10.441    15 532 kbps     00:43:39.283    15 316 kbps     00:43:34.278    61 703 bytes    240 345 bytes   00:43:32.109
STREAM DIAGNOSTICS:
File            PID             Type            Codec           Language                Seconds                 Bitrate                 Bytes           Packets
----            ---             ----            -----           --------                --------------          --------------          -------------   -----
00001.M2TS      4113 (0x1011)   0x02            MPEG-2                                  2850,147                14 831                  5 283 983 677   28 767 244
00001.M2TS      4352 (0x1100)   0x81            AC3             und (Undetermined)      2850,147                448                     159 615 232     890 710
QUICK SUMMARY:
Disc Title: Blu-RayDisc Size: 21 623 454 376 bytesProtection: AACSBD-Java: NoPlaylist: 00001.MPLSSize: 5 712 666 624 bytesLength: 0:47:30.247Total Bitrate: 16,03 MbpsVideo: MPEG-2 Video / 14831 kbps / 1080i / 29,970 fps / 16:9Audio: Undetermined / Dolby Digital Audio / 2.0 / 48 kHz / 448 kbps / DN -4dB

Скриншоты

Other forum [Profile] [PM]
Display posts from previous:    
Reply to topic

The time now is: Today 10:50

All times are GMT + 3 Hours



You cannot post new topics in this forum
You cannot reply to topics in this forum
You cannot edit your posts in this forum
You cannot delete your posts in this forum
You cannot vote in polls in this forum
You cannot attach files in this forum
You cannot download files in this forum