Today is a free download without charge Download

Все супергерои должны погибнуть / All Superheroes Must Die / Vs (Джейсон Трост / Jason Trost) [2011, США, триллер, BDRemux 1080p] VO (Andi) + Original Eng + Subs (Rus, Eng)

Reply to topic
 
Author
Message

Omen ®

Longevity: 8 years 5 months

Posts: 181087

Торрент-статистика

Post 29-Jan-2013 09:00

[Quote]

Все супергерои должны погибнуть / All Superheroes Must Die / Vs «Some Games Have No Winners» Год выпуска: 2011
Страна: США
Жанр: триллер
Продолжительность: 01:17:41.656
Перевод: Одноголосый закадровый Andi
Оригинальная аудиодорожка: Английская
Субтитры: Русские (Иерихон), английские
Студия: GRINDFIST
Режиссёр: Джейсон Трост / Jason Trost
В ролях: Джейсон Трост, Лукас Тилл, Джеймс Римар, Софи Меркли, Ник Принсип, Брайан Тейлор, Ли Вэлмэсси, Шон Уэйлен и др.
Описание: Четверо супер-героев похищены и заперты в городе-призраке. Человек, который все это проделал, предлагает им пройти некие испытания, или в противном случае погибнут невинные люди. В итоге, супер-герои вынуждены не только преодолевать смертельные ловушки, но и сражаться друг с другом, чтобы выжить и спасти заложников.
  • Кинопоиск
  • IMDB
  • Blu-ray.com
  • Сэмпл
    Качество: BDRemux 1080p
    Контейнер: MKV
    Видео кодек: MPEG-4 AVC Video
    Аудио кодек: Dolby Digital Audio / DTS-HD Master Audio
    Видео: MPEG-4 AVC Video / 29753 kbps / 1920x1080p / 23,976 fps / 16:9 / High Profile 4.1
    Аудио 1: Русский / Dolby Digital Audio / 2.0 / 48 kHz / 192 kbps / 16-bit (VO Andi)
    Аудио 2: English / DTS-HD Master Audio / 5.1 / 48 kHz / 2791 kbps / 24-bit (DTS Core: 5.1 / 48 kHz / 1509 kbps / 24-bit) (Оригинал)
    Навигация по главам: да

Скриншот с названием фильма

MediaInfo

C:\/*spam*/\Все супергерои должны погибнуть (All Superheroes Must Die) (Vs) 2011, США, триллер, BDRemux 1080p GORESEWAGE.mkv
General
Unique ID : 199371377375962524913730096801196200072 (0x95FD87D3B61D86539D18FBFCEC16D088)
Complete name : C:\/*spam*/\Все супергерои должны погибнуть (All Superheroes Must Die) (Vs) 2011, США, триллер, BDRemux 1080p GORESEWAGE.mkv
Format : Matroska
Format version : Version 4 / Version 2
File size : 17.8 GiB
Duration : 1h 17mn
Overall bit rate mode : Variable
Overall bit rate : 32.7 Mbps
Movie name : GORESEWAGE
Encoded date : UTC 2013-01-29 00:49:28
Writing application : mkvmerge v6.0.0 ('Coming Up For Air') built on Jan 20 2013 09:52:00
Writing library : libebml v1.3.0 + libmatroska v1.4.0
Video #1
ID : 1
Format : AVC
Format/Info : Advanced Video Codec
Format profile : [email protected]
Format settings, CABAC : Yes
Format settings, ReFrames : 4 frames
Codec ID : V_MPEG4/ISO/AVC
Duration : 1h 17mn
Bit rate mode : Variable
Bit rate : 30.3 Mbps
Maximum bit rate : 38.0 Mbps
Width : 1 920 pixels
Height : 1 080 pixels
Display aspect ratio : 16:9
Frame rate mode : Constant
Frame rate : 23.976 fps
Color space : YUV
Chroma subsampling : 4:2:0
Bit depth : 8 bits
Scan type : Progressive
Bits/(Pixel*Frame) : 0.610
Stream size : 16.5 GiB (93%)
Title : GORESEWAGE
Language : English
Default : Yes
Forced : No
Audio #2
ID : 2
Format : AC-3
Format/Info : Audio Coding 3
Mode extension : CM (complete main)
Format settings, Endianness : Big
Codec ID : A_AC3
Duration : 1h 17mn
Bit rate mode : Constant
Bit rate : 192 Kbps
Channel(s) : 2 channels
Channel positions : Front: L R
Sampling rate : 48.0 KHz
Bit depth : 16 bits
Compression mode : Lossy
Stream size : 107 MiB (1%)
Title : Одноголосый закадровый Andi
Language : Russian
Default : Yes
Forced : No
Audio #3
ID : 3
Format : DTS
Format/Info : Digital Theater Systems
Format profile : MA / Core
Codec ID : A_DTS
Duration : 1h 17mn
Bit rate mode : Variable
Bit rate : 1 561 Kbps / 1 510 Kbps
Channel(s) : 6 channels
Channel positions : Front: L C R, Side: L R, LFE
Sampling rate : 48.0 KHz
Bit depth : 24 bits
Compression mode : Lossless / Lossy
Title : Оригинал
Language : English
Default : No
Forced : No
Text #4
ID : 4
Format : UTF-8
Codec ID : S_TEXT/UTF8
Codec ID/Info : UTF-8 Plain Text
Language : Russian
Default : No
Forced : No
Text #5
ID : 5
Format : UTF-8
Codec ID : S_TEXT/UTF8
Codec ID/Info : UTF-8 Plain Text
Language : English
Default : No
Forced : No
Menu
00:00:00.000 : en:00:00:00.000
00:05:00.000 : en:00:05:00.000
00:10:00.000 : en:00:10:00.000
00:15:00.000 : en:00:15:00.000
00:20:00.000 : en:00:20:00.000
00:25:00.000 : en:00:25:00.000
00:30:00.000 : en:00:30:00.000
00:35:00.000 : en:00:35:00.000
00:40:00.000 : en:00:40:00.000
00:45:00.000 : en:00:45:00.000
00:50:00.000 : en:00:50:00.000
00:55:00.000 : en:00:55:00.000
01:00:00.000 : en:01:00:00.000
01:05:00.000 : en:01:05:00.000
01:10:00.000 : en:01:10:00.000
01:15:00.000 : en:01:15:00.000

Полноразмерный постер

Other forum [Profile] [PM]
Display posts from previous:    
Reply to topic

The time now is: Today 12:20

All times are GMT + 3 Hours



You cannot post new topics in this forum
You cannot reply to topics in this forum
You cannot edit your posts in this forum
You cannot delete your posts in this forum
You cannot vote in polls in this forum
You cannot attach files in this forum
You cannot download files in this forum