Today is a free download without charge Download

Discovery: Выжить любой ценой: Папуа-Новая Гвинея / Western Pacific (2010) SATRip-AVC

Reply to topic
 
Author
Message

Omen ®

Longevity: 7 years 10 months

Posts: 181087

Торрент-статистика

Post 29-Jan-2013 05:06

[Quote]


Информация о фильме
Название: Папуа-Новая Гвинея
Оригинальное название: Western Pacific
Ведущий Bеar Grylls
Год выхода: 2010
Жанр: документальный
Выпущено: Discovery
Перевод: закадровый (профессиональный одноголосый)
Торресов пролив - полоса океана между северной оконечностью Австралии и Папуа-Новая Гвинея ! Более 65 000 километров коварных течений, песчаных отмелей и коралловых рифов.
Беар Гриллс высадится на один из сотни безлюдных остовов этого района, где ему предстоит забраться на скалы из вулканической породы, плыть на плоту по океанским волнам и находится в опасной близости к акулам.
Беар Гриллс - эксперт, по выживанию, бывший спецназовец S.A.S., покажет и расскажет, как выжить в этой дикой глуши !
Видео: AVC, [email protected]х576 Anamorphic, 16:9, 25 fps, 1200 kbps, 0.116 bit/pixel
Аудио: AAC (LC), 32 kHz, 1 ch, 56 kbps

Media Info

General
Format : MPEG-4
Format profile : Base Media
Codec ID : isom
File size : 397 MiB
Duration : 44mn 1s
Overall bit rate mode : Variable
Overall bit rate : 1 261 Kbps
Encoded date : UTC 2012-06-23 16:03:48
Tagged date : UTC 2012-06-23 16:03:48
Writing application : My MP4Box GUI 0.5.5.4
Video
ID : 1
Format : AVC
Format/Info : Advanced Video Codec
Format profile : [email protected]
Format settings, CABAC : Yes
Format settings, ReFrames : 8 frames
Codec ID : avc1
Codec ID/Info : Advanced Video Coding
Duration : 44mn 1s
Bit rate : 1 201 Kbps
Maximum bit rate : 3 894 Kbps
Width : 720 pixels
Height : 576 pixels
Display aspect ratio : 16:9
Frame rate mode : Constant
Frame rate : 25.000 fps
Standard : PAL
Color space : YUV
Chroma subsampling : 4:2:0
Bit depth : 8 bits
Scan type : Progressive
Bits/(Pixel*Frame) : 0.116
Stream size : 378 MiB (95%)
Title : Video
Writing library : x264 core 119 r2106 07efeb4
Encoding settings : cabac=1 / ref=8 / deblock=1:0:0 / analyse=0x3:0x133 / me=umh / subme=9 / psy=1 / psy_rd=1.00:0.00 / mixed_ref=1 / me_range=16 / chroma_me=1 / trellis=2 / 8x8dct=1 / cqm=0 / deadzone=21,11 / fast_pskip=1 / chroma_qp_offset=-2 / threads=6 / sliced_threads=0 / nr=0 / decimate=1 / interlaced=0 / bluray_compat=0 / constrained_intra=0 / bframes=3 / b_pyramid=2 / b_adapt=2 / b_bias=0 / direct=3 / weightb=1 / open_gop=0 / weightp=2 / keyint=250 / keyint_min=25 / scenecut=40 / intra_refresh=0 / rc_lookahead=60 / rc=2pass / mbtree=1 / bitrate=1201 / ratetol=1.0 / qcomp=0.60 / qpmin=0 / qpmax=69 / qpstep=4 / cplxblur=20.0 / qblur=0.5 / ip_ratio=1.40 / aq=1:1.00
Encoded date : UTC 2012-06-24 15:51:37
Tagged date : UTC 2012-06-23 16:04:02
Audio
ID : 2
Format : AAC
Format/Info : Advanced Audio Codec
Format profile : LC
Codec ID : 40
Duration : 44mn 1s
Bit rate mode : Variable
Bit rate : 56.0 Kbps
Maximum bit rate : 60.8 Kbps
Channel(s) : 1 channel
Channel positions : Front: C
Sampling rate : 32.0 KHz
Compression mode : Lossy
Delay relative to video : -3s 333ms
Stream size : 17.6 MiB (4%)
Encoded date : UTC 2012-06-23 16:04:01
Tagged date : UTC 2012-06-23 16:04:02
Скриншоты
Other forum [Profile] [PM]
Display posts from previous:    
Reply to topic

The time now is: Today 04:05

All times are GMT + 3 Hours



You cannot post new topics in this forum
You cannot reply to topics in this forum
You cannot edit your posts in this forum
You cannot delete your posts in this forum
You cannot vote in polls in this forum
You cannot attach files in this forum
You cannot download files in this forum