Today is a free download without charge Download

Фартовый (Владимир Яканин) [2006 г.] (драма, криминал) [DVDRip]

Reply to topic
 
Author
Message

nsa1977 ®

Gender:

Longevity: 10 years

Posts: 1470

Location: Пенза

Торрент-статистика

Post 10-May-2011 20:35

[Quote]

Фартовый
Год выпуска: 2006
Жанр: драма, криминал
Продолжительность: 1:32:47
Режиссер: Владимир Яканин
В ролях:
Екатерина Вуличенко, Владимир Епифанцев, Александр Мохов, Николай Иванов, Алексей Жарков, Дмитрий Щербина, Борис Невзоров, Игорь Воробьев, Сергей Греков, Михаил Самохвалов- -Описание:22-летний Вадим Упоров по доносу осужден на 25 лет по статье 58 и отправлен в один из лагерей ГУЛАГА. По прибытии в лагерь он ссорится с ворами, и с вором в законе Дьяком, который приговаривает его к смерти. Чтобы избежать этой участи, он совершает побег. Побег не удается — его ловят, избивают и кидают в карцер в БУР.
В «сейфе» Упоров проводит полгода… Вернувшись в барак, он участвует в конфликте между ворами и «суками» ГУЛАГа. Угрозы воров заставляют нашего героя совершить ещё один побег: он помогает ворам вынести воровскую кассу на «большую землю»… И снова побег раскрыт, в живых остается только Упоров…-Качество: DVDRip
Формат: AVI
Видео кодек: XviD
Аудио кодек: AC3
Видео: 720x416 (1.73:1), 25 fps, XviD Final 1.0.3 (build 37), 1786 kbps avg, 0.24 bit/pixel, 1188.43 Mb
Аудио: 48 kHz, AC3 Dolby Digital, 3/2 (L,C,R,l,r) + LFE ch, 448 kbps, 1:32:47.784 / 297.35 Mb

Media Info

Общее
Полное имя : G:\Фартовый.avi
Формат : AVI
Формат/Информация : Audio Video Interleave
Размер файла : 1,45 Гбайт
Продолжительность : 1 ч. 32 м.
Общий поток : 2243 Кбит/сек
Название фильма : Фартовый
Программа кодирования : VirtualDubMod 1.5.10.2 (build 2540/release)
Видео
Идентификатор : 0
Формат : MPEG-4 Visual
Профиль формата : [email protected]
Параметр BVOP формата : 2
Параметр QPel формата : Нет
Параметр GMC формата : Без точки перехода
Параметр матрицы формата : Default (H.263)
Режим смешивания : Сжатый битовый поток
Идентификатор кодека : XVID
Идентификатор кодека/Подсказка : XviD
Продолжительность : 1 ч. 32 м.
Битрейт : 1786 Кбит/сек
Ширина : 720 пикс.
Высота : 416 пикс.
Соотношение сторон : 16:9
Частота кадров : 25,000 кадр/сек
Цветовое пространство : YUV
Подвыборка цветности : 4:2:0
Битовая глубина : 8 бит
Тип развёртки : Прогрессивная
Метод сжатия : С потерями
Бит/(Пиксели*Кадры) : 0.238
Размер потока : 1,16 Гбайт (80%)
Библиотека кодирования : XviD 1.0.3 (UTC 2004-12-20)
Аудио
Идентификатор : 1
Формат : AC-3
Формат/Информация : Audio Coding 3
Расширение режима : CM (complete main)
Идентификатор кодека : 2000
Продолжительность : 1 ч. 32 м.
Вид битрейта : Постоянный
Битрейт : 448 Кбит/сек
Канал(ы) : 6 канала(ов)
Расположение каналов : Front: L C R, Side: L R, LFE
Частота : 48,0 КГц
Битовая глубина : 16 бит
Метод сжатия : С потерями
Задержка видео : 360 мс.
Размер потока : 297 Мбайт (20%)
Выравнивание : Разделение по промежуткам
Продолжительность промежутка : 40 мс. (1,00 видеокадр)
Время предзагрузки промежутка : 500 ms
    

_________________


Last edited by nsa1977 on 2011-05-10 20:43; edited 3 times in total
Other forum [Profile] [PM]
Display posts from previous:    
Reply to topic

The time now is: Today 09:12

All times are GMT + 3 Hours



You cannot post new topics in this forum
You cannot reply to topics in this forum
You cannot edit your posts in this forum
You cannot delete your posts in this forum
You cannot vote in polls in this forum
You cannot attach files in this forum
You cannot download files in this forum