Today is a free download without charge Download

1812: Энциклопедия великой войны [01-56 из 56] (2012) DVDRip от Youtracker

Reply to topic
 
Author
Message

Omen ®

Longevity: 9 years 1 month

Posts: 181086

Торрент-статистика

Post 29-Jan-2013 04:55

[Quote]

Год выпуска: 2012
Страна: Россия
Студия: ООО "Авангард"
Жанр: документальный
Продолжительность: 03:01:35 (по 3 минуты 15 секунд на серию в среднем).
Перевод: не требуется
Субтитры: нет
Оригинальная аудиодорожка: русский
Режиссер: Александр Сидоров
Описание: В июне 1812 года, форсировав Неман, в Россию хлынула 640-тысячная армия захватчиков, а полгода спустя тот же Неман пересекли, но в обратном направлении, 30 тысяч побитых "завоевателей" — оборванных, еле живых. Войско Наполеона, не знавшее поражений на пространстве от Рейна до Египта, от Лиссабона до Греческого архипелага, от Рима до Балтики, пережило неслыханную в истории военную катастрофу. Нет, русские не "взяли числом". К началу войны Франция вместе с вассалами, снабжавшими ее пушечным мясом, имела вдвое большее население, чем Россия, а русская армия уступала французской по численности в полтора раза. 56 серий документального цикла "1812. Энциклопедия Великой Войны" рассказывают о "русском чуде", случившемся 200 лет назад...-
Исходник: 5xDVD5 R5
Качество: DVDRip
Формат: AVI
Видео: 720x400 (16:9), 25 fps, XviD MPEG-4 ~ 2079 kbps avg, 0.289 bit/pixel
Аудио: Русский AC3 2.0, 192Kbps, 48 khz
Субтитры: Нет
Раздача от:

Список серий

01 - Отечественная война 1812 года
02 - Тильзит
03 - Каолиция
04 - Шерше ля фам
05 - Информаторы
06 - Чернышев
07 - Вторжение
08 - Общество
09 - Барклай де Толли
10 - Кульнев
11 - Погоня
12 - Неверовский
13 - Ополчение
14 - Смоленск
15 - Кутузов
16 - Ростопчин
17 - Надежда Дурова
18 - Фальшивомонетчики
19 - Давыдов
20 - Аэростат
21 - Четвертак
22 - Диспозиция
23 - Шервардинский редут
24 - Багратион
25 - Платов
26 - Бородино
27 - Тучков четвертый
28 - Фили
29 - Мародеры
30 - Пожар
31 - Народная война
32 - Исход
33 - Партизаны
34 - Западня
35 - Кремль
36 - Марш-маневр
37 - Милорадович
38 - Сеславин
39 - Малоярославец
40 - Дохтуров
41 - Городня
42 - Старая смоленская дорога
43 - Клад Наполеона
44 - Красное
45 - Березина
46 - Чичагов
47 - Наполеон
48 - Катастрофа
49 - Александр первый
50 - Шеромыжники
51 - Фельдмаршал
52 - Битва народов
53 - Северные амуры
54 - Париж
55 - Война и мир
56 - 200 лет спустя

MediaInfo

Общее
Полное имя : 1812.2012.O.DVDRip_[Youtracker]_by_avproh�1.avi
Формат : AVI
Формат/Информация : Audio Video Interleave
Размер файла : 51,9 Мбайт
Продолжительность : 3 м. 11 с.
Общий поток : 2281 Кбит/сек
Программа кодирования : VirtualDubMod 1.5.10.3 | www.virtualdub-fr.org || (build 2550/release)
Библиотека кодирования : VirtualDubMod build 2550/release
Видео
Идентификатор : 0
Формат : MPEG-4 Visual
Профиль формата : Advanced [email protected]
Параметр BVOP формата : 1
Параметр QPel формата : Нет
Параметр GMC формата : Без точки перехода
Параметр матрицы формата : Выборочная
Идентификатор кодека : XVID
Идентификатор кодека/Подсказка : XviD
Продолжительность : 3 м. 11 с.
Битрейт : 2079 Кбит/сек
Ширина : 720 пикселей
Высота : 400 пикселей
Соотношение сторон : 16:9
Частота кадров : 25,000 кадров/сек
Цветовое пространство : YUV
Субдискретизация насыщенности : 4:2:0
Битовая глубина : 8 бит
Тип развёртки : Прогрессивная
Метод сжатия : С потерями
Бит/(Пиксели*Кадры) : 0.289
Размер потока : 47,3 Мбайт (91%)
Библиотека кодирования : XviD 65
Аудио
Идентификатор : 1
Формат : AC-3
Формат/Информация : Audio Coding 3
Расширение режима : CM (complete main)
Параметр Endianness формата : Big
Идентификатор кодека : 2000
Продолжительность : 3 м. 10 с.
Вид битрейта : Постоянный
Битрейт : 192 Кбит/сек
Каналы : 2 канала
Расположение каналов : Front: L R
Частота : 48,0 КГц
Битовая глубина : 16 бит
Метод сжатия : С потерями
Размер потока : 4,37 Мбайт (8%)
Выравнивание : Разделение по промежуткам
Продолжительность промежутка : 40 мс. (1,00 видеокадр)
Время предзагрузки промежутка : 500 мс.

Скриншоты

Other forum [Profile] [PM]
Display posts from previous:    
Reply to topic

The time now is: Today 01:07

All times are GMT + 3 Hours



You cannot post new topics in this forum
You cannot reply to topics in this forum
You cannot edit your posts in this forum
You cannot delete your posts in this forum
You cannot vote in polls in this forum
You cannot attach files in this forum
You cannot download files in this forum