Today is a free download without charge Download

Мир электронного рабства (2012) DVDRip

Reply to topic
 
Author
Message

Omen ®

Longevity: 9 years

Posts: 181086

Торрент-статистика

Post 29-Jan-2013 04:52

[Quote]


Информация о фильме
Год выпуска: 2012
Страна: Россия
Жанр: Документальный
Продолжительность: 2:41:37+2:21:34
Перевод: Не требуется
Русские субтитры: нет
Режиссер: Галина Царева
Всем кто интересуется документальной информацией и информацией для разума и ума и своего совершенствования. Рекомендую посетить мои раздачи:
http://rutor.org/browse/0/0/127689/0
Описание: В этом фильме вы услышите рассказ специалиста в области компьютерных технологий – Владимира Медведева, который в течение последних 20 лет был в эпицентре разработок и внедрения электронного правительства в США и России, являлся экспертом программ электронного государства.
В фильме рассказывается как заменялись базовые ценности народа, как разрушалась энергетика и угольная промышленность России, зачем строится база НАТО в Ульяновске. Как создавался электронный архив на жителей всей России; что такое электронное правительство и электронное государство; как происходит сбор персональных данных, куда эти данные попадают и невозможность их защиты; что такое СНИЛС и как он формировался; чем опасна УЭК и электронная карта школьника и как через карту может происходить влияние на сознание человека; что будет с людьми, не принявшими УЭК; как воздействует на людей сотовая связь, компьютер, что такое биорезонансное воздействие; как может наноситься начертание на тело человека – все это ведет к неминуемому созданию единого государства с одним правителем во главе – антихристом.
К сожалению, сейчас духовное усыпление настолько овладело людьми, что они перестали замечать скрытое коварство слуг врага рода человеческого и потому могут принять начертание на руку и лоб, даже зная теоретически, что Евангелие запрещает это делать. Никто не знает когда придет антихрист, но Россия уже стоит над пропастью, уже готовая упасть к его приходу. Поэтому нужно бороться с надвигающимся царством тьмы теперь, когда возможность борьбы еще не отнята от нас. Всякое же уклонение от борьбы теперь, всякий хотя бы самый незначительный компромисс со злом во имя сосуществования с ним, допущенный сегодня, только еще больше увеличит трудность борьбы с ним завтра. Нужно «делать дела… доколе есть день; приходит ночь, когда никто не может делать».

Mediainfo

General
Мир электронного рабства(часть 1).avi
Format : AVI
Format/Info : Audio Video Interleave
File size : 1.37 GiB
Duration : 2h 41mn
Overall bit rate : 1 212 Kbps
Writing application : VirtualDubMod 1.5.4.1 (build 2178/release)
Writing library : VirtualDubMod build 2178/release
Video
ID : 0
Format : MPEG-4 Visual
Format profile : Advanced [email protected]
Format settings, BVOP : 1
Format settings, QPel : No
Format settings, GMC : No warppoints
Format settings, Matrix : Custom
Codec ID : XVID
Codec ID/Hint : XviD
Duration : 2h 41mn
Bit rate : 1 013 Kbps
Width : 512 pixels
Height : 384 pixels
Display aspect ratio : 4:3
Frame rate : 25.000 fps
Color space : YUV
Chroma subsampling : 4:2:0
Bit depth : 8 bits
Scan type : Progressive
Compression mode : Lossy
Bits/(Pixel*Frame) : 0.206
Stream size : 1.14 GiB (84%)
Writing library : XviD 58
Audio
ID : 1
Format : AC-3
Format/Info : Audio Coding 3
Mode extension : CM (complete main)
Format settings, Endianness : Big
Codec ID : 2000
Duration : 2h 41mn
Bit rate mode : Constant
Bit rate : 192 Kbps
Channel(s) : 2 channels
Channel positions : Front: L R
Sampling rate : 48.0 KHz
Bit depth : 16 bits
Compression mode : Lossy
Stream size : 222 MiB (16%)
Alignment : Split accross interleaves
Interleave, duration : 96 ms (2.40 video frames)
Interleave, preload duration : 96 ms
Language : English
Качество: DVDRip
Формат: AVI
Видео кодек: XviD
Аудио кодек: MP3
Видео: XviD 512x384 (4:3) 25 fps 1013 kbps avg
Аудио: MPEG Audio 48000Hz stereo 128kbps

Скриншоты

Other forum [Profile] [PM]
Display posts from previous:    
Reply to topic

The time now is: Today 04:50

All times are GMT + 3 Hours



You cannot post new topics in this forum
You cannot reply to topics in this forum
You cannot edit your posts in this forum
You cannot delete your posts in this forum
You cannot vote in polls in this forum
You cannot attach files in this forum
You cannot download files in this forum