Today is a free download without charge Download

Связь времён (Алексей Колмогоров) [2011, Военный, Драма, Исторический, Мистика, SATRip]

Reply to topic
 
Author
Message

nsa1977 ®

Gender:

Longevity: 10 years

Posts: 1470

Location: Пенза

Торрент-статистика

Post 10-May-2011 08:46

[Quote]

Связь времён-- Жанр: Военный, Драма, Исторический, Мистика
Год выпуска: 2011
Продолжительность: 01:44:21
Режиссёр: Алексей Колмогоров-В ролях: Светлана Иванова, Кирилл Бурдихин, Маркус Кунце, Жан-Марк Биркхольц, Екатерина Вилкова,
Тамара Спиричева, Штеффен Грот, Алексей Серебряков, Марсель-Андре Хайцманн, Галина Польских,
Нелли Пшенная, Станислав Житарев, Сергей Белякович (II), Александр Гиренок- -Описание: Это невероятная история любви, преодолевшей войну и пропасть времени длиной в
шестьдесят семь лет. Действие происходит в двух временных линиях: в наше время и в 1943 году, в России
и в Германии. Два молодых лейтенанта – немец и русский – разделенные войной, идеологией, солдатским
долгом, вынуждены волею обстоятельств преодолеть взаимную ненависть и заключить перемирие. Посреди
войны они оказываются на островке хрупкого мира, где влюбляются в одну девушку. Им хотелось бы продлить
этот светлый сон. Но война продолжается, и каждый должен вернуться к своим. Они снова враги. Единственное,
в чем оба лейтенанта сходятся – они должны спасти девушку. И они ее спасают ценой собственных жизней.
И через шестьдесят семь лет после гибели они спасают ее снова, мистическим образом передав информацию
о грозящей ей беде своим внукам.
Картина о связи времен. Любовь - это основная тема, которая связывает все во времени. Фильм показывает,
что спустя годы и даже смерть, можно любить. Это драма с элементами триллера и мистики, но герои не попадаю
т в прошлое или будущее. Те, кого уже нет на свете, присутствуют в нашем времени как тени из прошлого и
помогают спустя 65 лет спасти женщину, которую они полюбили в 1943 году.-Доп. информация: Релиз группа: RiperAM
Качество видео: SATRip
Формат видео: AVI
Видео: 720x400 (1.80:1), 25 fps, XviD MPEG-4 ~1343 kbps avg, 0.19 bit/pixel
Аудио: 48 kHz, MPEG Layer 3, 2 ch, ~192.00 kbps avg

MediaInfo

Формат : AVI
Формат/Информация : Audio Video Interleave
Размер файла : 1,12 Гбайт
Продолжительность : 1 ч. 44 м.
Общий поток : 1541 Кбит/сек
Библиотека кодирования : TMPGEnc 4.0 XPress Version. 4.7.7.307
Видео
Идентификатор : 0
Формат : MPEG-4 Visual
Профиль формата : Advanced [email protected]
Параметр BVOP формата : 2
Параметр QPel формата : Нет
Параметр GMC формата : Без точки перехода
Параметр матрицы формата : Default (H.263)
Режим смешивания : Сжатый битовый поток
Идентификатор кодека : XVID
Идентификатор кодека/Подсказка : XviD
Продолжительность : 1 ч. 44 м.
Битрейт : 1342 Кбит/сек
Ширина : 720 пикс.
Высота : 400 пикс.
Соотношение сторон : 16:9
Частота кадров : 25,000 кадр/сек
Цветовое пространство : YUV
Подвыборка цветности : 4:2:0
Битовая глубина : 8 бит
Тип развёртки : Прогрессивная
Метод сжатия : С потерями
Бит/(Пиксели*Кадры) : 0.186
Размер потока : 1000 Мбайт (87%)
Библиотека кодирования : XviD 63
Аудио
Идентификатор : 1
Формат : MPEG Audio
Версия формата : Version 1
Профиль формата : Layer 3
Режим : Joint stereo
Расширение режима : MS Stereo
Идентификатор кодека : 55
Идентификатор кодека/Подсказка : MP3
Продолжительность : 1 ч. 44 м.
Вид битрейта : Постоянный
Битрейт : 192 Кбит/сек
Каналы : 2 канала
Частота : 48,0 КГц
Метод сжатия : С потерями
Размер потока : 143 Мбайт (12%)
Выравнивание : Разделение по промежуткам
Продолжительность промежутка : 250 мс. (6,25 видеокадров)
Время предзагрузки промежутка : 237 ms
    

_________________


Last edited by nsa1977 on 2011-05-10 08:47; edited 1 time in total
Other forum [Profile] [PM]
Display posts from previous:    
Reply to topic

The time now is: Today 01:26

All times are GMT + 3 Hours



You cannot post new topics in this forum
You cannot reply to topics in this forum
You cannot edit your posts in this forum
You cannot delete your posts in this forum
You cannot vote in polls in this forum
You cannot attach files in this forum
You cannot download files in this forum