Today is a free download without charge Download

Кровавый алмаз / Blood Diamond (Эдвард Цвик / Edward Zwick) [2006 г.] (триллер, драма, приключения) [BDRip] AVO (Гаврилов)

Reply to topic
 
Author
Message

nsa1977 ®

Gender:

Longevity: 8 years 11 months

Posts: 1473

Location: Пенза

Торрент-статистика

Post 10-May-2011 08:29

[Quote]

Кровавый алмаз / Blood Diamond
-Год выпуска: 2006
Мировая премьера: 8 декабря 2006
Российская премьера: 1 февраля 2007, «Каро-Премьер»
Дата выхода DVD: 17 марта 2011, «CP-Digital»
Производство: США, Германия
Жанр: триллер, драма, приключения
Продолжительность: 02:23:21
Перевод: Авторский (одноголосый)
Оригинальный аудиопоток: Отсутствует
Автор(ы) перевода: А. Гаврилов
Режиссер: Эдвард Цвик / Edward Zwick-В ролях: Леонардо ДиКаприо, Джимон Хунсу, Дженнифер Коннелли, Карузо Кеперс,
Арнольд Вослоу, Энтони Коулмэн, Бену Мабхена, Анойнтинг Лукола, Дэвид Хэрвуд, Бейзил Уоллес..-Описание: 1999, Сьерра-Леоне. Гражданская война. Кровь и хаос. В этой безрадостной
атмосфере орудует ловкий контрабандист, специальность которого — бриллианты. Ему нет особенного
дела, что эти камешки используются для дальнейшего нагнетания межнациональной розни.
Но однажды контрабандист встречает местного фермера, у которого пропал сын — его, говорят,
забрали в «детскую армию», используемую на фронтах гражданской войны. И два разных человека
образуют противоестественную коалицию…-Доп. информация: За видео спасибо DaniLch. За Гаврилова edsz.
Сэмпл, IMDB, КиноПоиск
Источник/Качество: BDRip
Формат: AVI
Видео кодек: XviD
Аудио кодек: AC3
Видео: 704x288 (2.44:1), 23.976 fps, XviD build 50 ~1790 kbps avg, 0.37 bit/pixel
Аудио: 48 kHz, AC3 Dolby Digital, 3/2 (L,C,R,l,r) + LFE ch, ~448 kbps
Субтитры: нет

Комрадам, участникам проекта

dunhill200, Goldtwait, lexal2002, Chistobaev, edsz, vik19662007, anton966, Джосс, Volfgang77,
mihaildns, pestel, TvarYuri, vvladvvv2009, hulahup, Fess Necromant, audax, sid34, Dimec89, darkman70, Goblin1961, pavel0701.93, milocerd0v, sergey_n, tatyanochka2011, kinobbk, chip & dale
Огромная благодарность.

Это интересно

Премьера фильма вызвала массовую критику властей ЮАР, которым пришлось оправдываться перед международным сообществом по обвинениям в преступлениях перед человеком. Официальные лица африканской страны косвенно признали факты нарушений гражданских прав населения, однако, подчеркнули, что все это в далеком прошлом, а доля нелегальных алмазов на мировом рынке не превышает одного процента. Исполнителям главных ролей, также, было предложено лично посетить предприятия по добыче алмазов, и убедиться в соблюдении всех международных законов.

Награды

Рецензия

Африка. Сьерра-Леоне. Война между теми, кто дорвался до власти и уже зарабатывает на старость в изгнании и теми, кто ещё не имеет реальной власти, но хочет повторить путь первых. И так до бесконечности. Бесконечности боли и страхе за свою жизнь, разрушенных семей и детей, у которых отняли детство.
«ТЭА — такова эта Африка» — заявляет Дэни Арчер, у которого этот континент успел ещё в детстве отнять родителей, но он не может уехать отсюда — контрабанда алмазов, которая подбрасывает новые дрова в топку войны является выгодным занятием. Дэни вынужден ввязаться в авантюру, отправившись на поиски большого алмаза, спрятанный рыбаком Соломоном Ванди, который ищет свою семью. В их компанию попадает американская журналистка Мэдди, которая хочет написать статью о тех, из — за кого не прекращается война. Этой разношерстной компании предстоит пережить многое, отправляясь на поиски сокровища, которое для каждого — своё.
А в это время на других континентах политики всё никак не могут решить, что им делать с полыхающими странами, торговцы оружием сравнивают покупательские возможности разных группировок, ювелирные компанию усиленно стирают кровь с будущего дорогого товара, а избалованные девки просто хотят носить украшения, за которые их мужчины готовы выложить свой заработок за несколько месяцев.
Эдвард Цвик добивается резкого контраста, показывая места, где за алмазы убивают, и где бриллианты можно купить, дойдя до магазина, демонстрируя какой огромнейшой ценой достаются бесполезные безделушки.
Троица актёров: ДиКаприо, Хунсу, Коннели отыграли безукоризненно, добавит тут нечего.
Любителям качественных драм смотреть обязательно.

Media Info

General
Complete name : D:\Torrent\Krovavyj.Almaz.2006.BDRip.XviD.AC3.AVO(Gavrilov).avi
Format : AVI
Format/Info : Audio Video Interleave
Format profile : OpenDML
File size : 2.25 GiB
Duration : 2h 23mn
Overall bit rate : 2 245 Kbps
Movie name : Blood Diamond (2006) BDRip
Director : DaniLch
Genre : Thriller/Drama/Adventure
Writing application : VirtualDubModRus 1.5.10.2 (build 2542/release)
Writing library : VirtualDubMod build 2542/release
Copyright :
Comment : R.G. HQCLUB
Video
ID : 0
Format : MPEG-4 Visual
Format profile : Advanced [email protected]
Format settings, BVOP : Yes
Format settings, QPel : No
Format settings, GMC : No warppoints
Format settings, Matrix : Custom
Codec ID : XVID
Codec ID/Hint : XviD
Duration : 2h 23mn
Bit rate : 1 785 Kbps
Width : 704 pixels
Height : 288 pixels
Display aspect ratio : 2.40:1
Frame rate : 23.976 fps
Color space : YUV
Chroma subsampling : 4:2:0
Bit depth : 8 bits
Scan type : Progressive
Bits/(Pixel*Frame) : 0.367
Stream size : 1.79 GiB (80%)
Writing library : XviD 1.2.1 (UTC 2008-12-04)
Audio
ID : 1
Format : AC-3
Format/Info : Audio Coding 3
Mode extension : CM (complete main)
Codec ID : 2000
Duration : 2h 23mn
Bit rate mode : Constant
Bit rate : 448 Kbps
Channel(s) : 6 channels
Channel positions : Front: L C R, Side: L R, LFE
Sampling rate : 48.0 KHz
Bit depth : 16 bits
Stream size : 459 MiB (20%)
Alignment : Split accross interleaves
Interleave, duration : 42 ms (1.00 video frame)
Interleave, preload duration : 500 ms

Трейлер

    

_________________


Last edited by nsa1977 on 2011-05-10 08:30; edited 1 time in total
Other forum [Profile] [PM]
Display posts from previous:    
Reply to topic

The time now is: Today 09:57

All times are GMT + 3 Hours



You cannot post new topics in this forum
You cannot reply to topics in this forum
You cannot edit your posts in this forum
You cannot delete your posts in this forum
You cannot vote in polls in this forum
You cannot attach files in this forum
You cannot download files in this forum