Today is a free download without charge Download

1812 [01-04 из 04] (2012) DVDRip-AVC от Youtracker

Reply to topic
 
Author
Message

Omen ®

Longevity: 9 years

Posts: 181086

Торрент-статистика

Post 29-Jan-2013 04:49

[Quote]

Год выпуска: 2012
Страна: Россия
Студия: Стар-медиа
Жанр: документальный, исторический
Продолжительность: 4 х ~ 50 мин.
Перевод: не требуется
Субтитры: нет
Оригинальная аудиодорожка: русский
Режиссер: Павел Тупик
Голос за кадром: Сергей Чонишвили
Описание: Июньским утром 1812 года по трём мостам, наведённым через реку Неман, переправились полки самой мощной армии мира. Французы и поляки, итальянцы и австрийцы, пруссаки и испанцы, португальцы, голландцы, представители многочисленных германских княжеств…«Войска двунадесяти языков» — так называли эту армию русские. Возглавляемая императором Франции Наполеоном, она вторглась в пределы Российской империи.
На западной границе России находились три русские армии численностью не более 220 тысяч человек. Им противостояли 614 тысяч солдат Наполеона. Всего же французская армия насчитывала более 800 тысяч солдат разных национальностей. В 16 губерниях России создавались формирования народного ополчения, а в Украине, на Дону и на Урале — казачьи полки. Дворянство записывалось в армию. В храмах служили молебны о спасении России. Митрополит Платон вручил русскому императору чудотворный образ Сергия Радонежского, который Александр I передал московскому ополчению. Спустя всего несколько недель наполеоновского похода во многих французских полках уже числились сотни заболевших, отставших, пропавших без вести и дезертиров. А в первых же сражениях отчаянная храбрость и решимость русских стоять насмерть удивляли видавших виды французских солдат и офицеров…...- -Исходник: 2 x DVD5 R5
Качество: DVDRip-AVC
Формат: MKV
Видео: [email protected] (16:9), 25 fps, H264 ~ 1589 kbps avg, 0.153 bit/pixel
Аудио: 48 kHz, AC3, 6 ch, 448.00 kbps
Раздача от:

Серии

1. Нашествие.
2. Противостояние.
3. Бородино.
4. Изгнание.

MediaInfo

Общее
Полное имя : 1812.2012.O.DVDRip-AVC_[Youtracker]_by_avproh�1.mkv
Формат : Matroska
Версия формата : Version 2
Размер файла : 728 Мбайт
Продолжительность : 49 м.
Общий поток : 2038 Кбит/сек
Дата кодирования : UTC 2012-10-12 21:08:21
Программа кодирования : mkvmerge v5.8.0 ('No Sleep / Pillow') built on Sep 2 2012 15:37:04
Библиотека кодирования : libebml v1.2.3 + libmatroska v1.3.0
Видео
Идентификатор : 1
Формат : AVC
Формат/Информация : Advanced Video Codec
Профиль формата : [email protected]
Параметр CABAC формата : Да
Параметр ReFrames формата : 11 кадров
Идентификатор кодека : V_MPEG4/ISO/AVC
Продолжительность : 49 м.
Битрейт : 1589 Кбит/сек
Ширина : 720 пикселей
Высота : 576 пикселей
Соотношение сторон : 16:9
Частота кадров : 25,000 кадров/сек
Стандарт вещания : PAL
Цветовое пространство : YUV
Субдискретизация насыщенности : 4:2:0
Битовая глубина : 8 бит
Тип развёртки : Прогрессивная
Бит/(Пиксели*Кадры) : 0.153
Размер потока : 554 Мбайт (76%)
Библиотека кодирования : x264 core 119 r2106 07efeb4
Настройки программы : cabac=1 / ref=11 / deblock=1:-2:-1 / analyse=0x3:0x113 / me=umh / subme=9 / psy=1 / psy_rd=1.00:0.20 / mixed_ref=1 / me_range=32 / chroma_me=1 / trellis=1 / 8x8dct=1 / cqm=0 / deadzone=21,11 / fast_pskip=0 / chroma_qp_offset=-3 / threads=6 / sliced_threads=0 / nr=0 / decimate=0 / interlaced=0 / bluray_compat=0 / constrained_intra=0 / bframes=8 / b_pyramid=2 / b_adapt=2 / b_bias=0 / direct=3 / weightb=1 / open_gop=0 / weightp=2 / keyint=250 / keyint_min=25 / scenecut=40 / intra_refresh=0 / rc_lookahead=60 / rc=2pass / mbtree=1 / bitrate=1589 / ratetol=1.0 / qcomp=0.60 / qpmin=0 / qpmax=69 / qpstep=4 / cplxblur=20.0 / qblur=0.5 / ip_ratio=1.40 / aq=1:1.00
Язык : English
Default : Да
Forced : Нет
Аудио
Идентификатор : 2
Формат : AC-3
Формат/Информация : Audio Coding 3
Расширение режима : CM (complete main)
Параметр Endianness формата : Big
Идентификатор кодека : A_AC3
Продолжительность : 49 м.
Вид битрейта : Постоянный
Битрейт : 448 Кбит/сек
Каналы : 6 каналов
Расположение каналов : Front: L C R, Side: L R, LFE
Частота : 48,0 КГц
Битовая глубина : 16 бит
Метод сжатия : С потерями
Размер потока : 160 Мбайт (22%)
Default : Да
Forced : Нет

Скриншоты

Other forum [Profile] [PM]
Display posts from previous:    
Reply to topic

The time now is: Today 06:12

All times are GMT + 3 Hours



You cannot post new topics in this forum
You cannot reply to topics in this forum
You cannot edit your posts in this forum
You cannot delete your posts in this forum
You cannot vote in polls in this forum
You cannot attach files in this forum
You cannot download files in this forum