Today is a free download without charge Download

12 метров без головы / Zwоlf Meter ohne Kopf (Свен Таддикен / Sven Taddicken) [2009 г.] (драма, комедия, приключения, история) [DVDRip] (MVO) [internal release]

Reply to topic
 
Author
Message

nsa1977 ®

Gender:

Longevity: 9 years 3 months

Posts: 1470

Location: Пенза

Торрент-статистика

Post 10-May-2011 01:09

[Quote]

--12 метров без головы / Zwölf Meter ohne Kopf-- Год выпуска: 2009
Производство: Германия
Жанр: драма, комедия, приключения, история
Продолжительность: 01:38:26
Перевод: Профессиональный (многоголосый) [лицензия]
Режиссер: Свен Таддикен / Sven Taddicken-В ролях: Ronald Zehrfeld, Маттиас Швайгхефер, Oliver Bröcker, Хиннерк Шонеманн, Якоб Маченц, Франциска Вульф, Яна Палласке, Девид Штрисов, Александер Шеер, Милан Пешель-Описание: 1400 год. Суровый капитан Клаус Штертбекер и его помощник Михелс возглавляют самую отчаянную пиратскую команду во всей Восточной Фризии. Но во время последнего захвата торгового судна Клаус получает тяжелую рану и решает навсегда оставить разбойничий промысел. Когда ничто уже, казалось бы, не может повлиять на капитана, Михелс случайно обнаруживает на борту их ветхого корабля оружие невероятной мощи, которое поможет им вновь утвердить господство на море.-Качество: DVDRip | Сэмпл | IMDB | КиноПоиск
Формат: AVI
Видео кодек: XviD
Аудио кодек: AC3
Видео: 720x400 (1.80:1), 25 fps, XviD build 50 ~1720 kbps avg, 0.24 bit/pixel
Аудио: 48 kHz, AC3 Dolby Digital, 3/2 (L,C,R,l,r) + LFE ch, ~384 kbps

Media Info

General
Complete name : D:\Видео\Internal Release\12.metrov.bez.golovy.2009.XviD.DVDRip.JRG.avi
Format : AVI
Format/Info : Audio Video Interleave
File size : 1.45 GiB
Duration : 1h 38mn
Overall bit rate : 2 114 Kbps
Movie name : 12.metrov.bez.golovy.2009.XviD.DVDRip.JRG
Writing application : VirtualDubMod 1.5.10.3 | www.virtualdub-fr.org || (build 2550/release)
Copyright : The Jolly Roger For /*spam*/
Video
ID : 0
Format : MPEG-4 Visual
Format profile : Advanced [email protected]
Format settings, BVOP : Yes
Format settings, QPel : No
Format settings, GMC : No warppoints
Format settings, Matrix : Default (MPEG)
Codec ID : XVID
Codec ID/Hint : XviD
Duration : 1h 38mn
Bit rate : 1 720 Kbps
Width : 720 pixels
Height : 400 pixels
Display aspect ratio : 16:9
Frame rate : 25.000 fps
Color space : YUV
Chroma subsampling : 4:2:0
Bit depth : 8 bits
Scan type : Progressive
Bits/(Pixel*Frame) : 0.239
Stream size : 1.18 GiB (81%)
Writing library : XviD 1.2.1 (UTC 2008-12-04)
Audio
ID : 1
Format : AC-3
Format/Info : Audio Coding 3
Mode extension : CM (complete main)
Codec ID : 2000
Duration : 1h 38mn
Bit rate mode : Constant
Bit rate : 384 Kbps
Channel(s) : 6 channels
Channel positions : Front: L C R, Side: L R, LFE
Sampling rate : 48.0 KHz
Bit depth : 16 bits
Stream size : 270 MiB (18%)
Alignment : Split accross interleaves
Interleave, duration : 40 ms (1.00 video frame)
Interleave, preload duration : 500 ms

Скриншоты

       

_________________


Last edited by nsa1977 on 2011-05-10 01:10; edited 1 time in total
Other forum [Profile] [PM]
Display posts from previous:    
Reply to topic

The time now is: Today 22:21

All times are GMT + 3 Hours



You cannot post new topics in this forum
You cannot reply to topics in this forum
You cannot edit your posts in this forum
You cannot delete your posts in this forum
You cannot vote in polls in this forum
You cannot attach files in this forum
You cannot download files in this forum