Today is a free download without charge Download

Пресс-конференция Президента РБ А.Г.Лукашенко СМИ регионов России [Телеверсия] (2012) DVBRip

Reply to topic
 
Author
Message

Omen ®

Longevity: 9 years 1 month

Posts: 181086

Торрент-статистика

Post 29-Jan-2013 04:48

[Quote]


Информация о фильме
Название: Пресс-конференция Президента РБ А.Г.Лукашенко СМИ регионов России [Телеверсия]
Год выхода: 2012
Жанр: интервью
Производство: Белтелерадиокомпания
Страна: Беларусь
Продолжительность программы: 01:35:51
Перевод: Не требуется
Описание: Кульминацией пресс-тура представителей российских региональных СМИ в Беларусь стала пресс-конференция Председателя Высшего Государственного Совета Союзного государства – Президента Республики Беларусь А.Лукашенко, которая в очередной раз подтвердила стремление Беларуси к дальнейшему развитию самого тесного взаимодействия с Россией во всех сферах.
Белорусский лидер ответил на вопросы российских журналистов. Разговор с главой белорусского государства получился разноплановым, деловым и откровенным. Журналисты получили из уст Президента ответы на самые актуальные вопросы. Спектр интересов репортеров – от экономики и политики до здоровья,демографии и развития белорусского спорта
Файл
Кодек: XviD
Качество: DVBRip
Видео: 640x480, 25 к/с, 4:3, 600 кбит/с
Звук: MP3, 56 кбит/с, 32 кгц, моно

MediaInfo

Формат : AVI
Формат/Информация : Audio Video Interleave
Размер файла : 456 Мбайт
Продолжительность : 1 ч. 35 м.
Общий поток : 665 Кбит/сек
Программа кодирования : VirtualDubMod 1.5.10.2 (build 2540/release)
Библиотека кодирования : VirtualDubMod build 2540/release
Видео
Идентификатор : 0
Формат : MPEG-4 Visual
Профиль формата : Advanced [email protected]
Параметр BVOP формата : 2
Параметр QPel формата : Да
Параметр GMC формата : Без точки перехода
Параметр матрицы формата : Default (MPEG)
Режим смешивания : Сжатый битовый поток
Идентификатор кодека : XVID
Идентификатор кодека/Подсказка : XviD
Продолжительность : 1 ч. 35 м.
Битрейт : 600 Кбит/сек
Ширина : 640 пикселей
Высота : 480 пикселей
Соотношение сторон : 4:3
Частота кадров : 25,000 кадров/сек
Цветовое пространство : YUV
Субдискретизация насыщенности : 4:2:0
Битовая глубина : 8 бит
Тип развёртки : Прогрессивная
Метод сжатия : С потерями
Бит/(Пиксели*Кадры) : 0.078
Размер потока : 411 Мбайт (90%)
Библиотека кодирования : XviD 64
Аудио
Идентификатор : 1
Формат : MPEG Audio
Версия формата : Version 1
Профиль формата : Layer 3
Идентификатор кодека : 55
Идентификатор кодека/Подсказка : MP3
Продолжительность : 1 ч. 35 м.
Вид битрейта : Постоянный
Битрейт : 56,0 Кбит/сек
Каналы : 1 канал
Частота : 32,0 КГц
Метод сжатия : С потерями
Размер потока : 38,4 Мбайт (8%)
Выравнивание : Соединение по промежуткам
Продолжительность промежутка : 40 мс. (1,00 видеокадр)
Время предзагрузки промежутка : 504 мс.
Other forum [Profile] [PM]
Similar theme
Forum Topic Author Torrent Replies Last Post
./templates/default/images/folder_dl.gif Медицина и Здоровье Александр Шишкин | Массаж за 20 минут. Экспресс-курс для начинающих (2015) [FB2] Omen
1 | 0

0 | 1250

12

2015-09-01 18:52
Omen Latest
Display posts from previous:    
Reply to topic

The time now is: Today 08:53

All times are GMT + 3 Hours



You cannot post new topics in this forum
You cannot reply to topics in this forum
You cannot edit your posts in this forum
You cannot delete your posts in this forum
You cannot vote in polls in this forum
You cannot attach files in this forum
You cannot download files in this forum