Today is a free download without charge Download

Правда про экстрасенсов (1999) TVRip

Reply to topic
 
Author
Message

Omen ®

Longevity: 9 years

Posts: 181086

Торрент-статистика

Post 29-Jan-2013 04:48

[Quote]

[font=Georgia]Правда про экстрасенсов

Название: Правда про экстрасенсов
Год выхода: 1999
Страна: Россия
Жанр: Документальный фильм
Продолжительность: 00:27:36
Перевод: Не требуется
Режиссер: Лариса Казерская
Описание: Бывший экстрасенс Сергей Бобровский открывает правду про колдунов, экстрасенсов, мудиумов, биоэнергетиков и т.д. Он расказывает какой силой они делают свои дела, узнайте правду что происходит с людьми во время сеансов целителей. Газеты писали откровения Сергея Бобровского "Я служил сатане".
Качество: TVRip
Формат: AVI
Видео кодек: DivX
Аудио кодек: MP3
Видео: 640x480 (1.33:1), 24.999 fps, DivX 3 MPEG-4 Fast-Motion ~529 kbps avg, 0.07 bit/pixel
Аудио: 44.100 kHz, MPEG Layer 3, 2 ch, ~127.70 kbps avg

МедиаИнфо

Общее
Полное имя : D:/Фильмы/pravda_pro_ekstrasensov.avi
Формат : AVI
Формат/Информация : Audio Video Interleave
Размер файла : 132 Мбайт
Продолжительность : 27 м.
Общий поток : 667 Кбит/сек
Библиотека кодирования : VirtualDub build 11759/release
Видео
Идентификатор : 0
Формат : MPEG-4 Visual
Идентификатор кодека : DIV3
Идентификатор кодека/Подсказка : DivX 3 Low
Продолжительность : 27 м.
Битрейт : 529 Кбит/сек
Ширина : 640 пикселей
Высота : 480 пикселей
Соотношение сторон : 4:3
Частота кадров : 25,000 кадров/сек
Цветовое пространство : YUV
Субдискретизация насыщенности : 4:2:0
Битовая глубина : 8 бит
Метод сжатия : С потерями
Бит/(Пиксели*Кадры) : 0.069
Размер потока : 105 Мбайт (79%)
Аудио
Идентификатор : 1
Формат : MPEG Audio
Версия формата : Version 1
Профиль формата : Layer 3
Режим : Joint stereo
Расширение режима : MS Stereo
Идентификатор кодека : 55
Идентификатор кодека/Подсказка : MP3
Продолжительность : 27 м.
Вид битрейта : Постоянный
Битрейт : 128 Кбит/сек
Каналы : 2 канала
Частота : 44,1 КГц
Метод сжатия : С потерями
Задержка видео : 1 мс.
Размер потока : 25,2 Мбайт (19%)
Выравнивание : Разделение по промежуткам
Продолжительность промежутка : 40 мс. (1,00 видеокадр)
Время предзагрузки промежутка : 499 мс.

Скриншоты


Other forum [Profile] [PM]
Display posts from previous:    
Reply to topic

The time now is: Today 06:29

All times are GMT + 3 Hours



You cannot post new topics in this forum
You cannot reply to topics in this forum
You cannot edit your posts in this forum
You cannot delete your posts in this forum
You cannot vote in polls in this forum
You cannot attach files in this forum
You cannot download files in this forum