Today is a free download without charge Download

Интервью Президента Беларуси Александра Лукашенко британской газете Индепендент [Телеверсия] (2012) DVBRip

Reply to topic
 
Author
Message

Omen ®

Longevity: 9 years 1 month

Posts: 181086

Торрент-статистика

Post 29-Jan-2013 04:47

[Quote]


Информация о фильме
Название: Интервью Президента Беларуси Александра Лукашенко британской газете Индепендент [Телеверсия] (2012) DVBRip
Год выхода: 2012
Жанр: интервью
Производство: Белтелерадиокомпания
Страна: Беларусь
Продолжительность программы: 01:12:12
Перевод: Не требуется
Описание: Взаимоотношения Беларуси с Западом, внутренняя политика, международная повестка дня - более 60 вопросов. Откровенно и без купюр. Интервью Президента Беларуси Александра Лукашенко британской газете "Индепендент" собрало множество откликов на сайте издания. Глава государства часто встречается с зарубежными журналистами, и каждая такая встреча - интригующее событие для всего медиапространства. Что же так зацепило британскую аудиторию?
Файл
Кодек: XviD
Качество: DVBRip
Видео: 640x480, 25 к/с, 4:3, 600 кбит/с
Звук: MP3, 56 кбит/с, 32 кгц, моно

MediaInfo

Format : AVI
Format/Info : Audio Video Interleave
File size : 344 MiB
Duration : 1h 12mn
Overall bit rate : 667 Kbps
Writing application : VirtualDubMod 1.5.10.2 (build 2540/release)
Writing library : VirtualDubMod build 2540/release
Video
ID : 0
Format : MPEG-4 Visual
Format profile : Advanced [email protected]
Format settings, BVOP : 2
Format settings, QPel : Yes
Format settings, GMC : No warppoints
Format settings, Matrix : Default (MPEG)
Muxing mode : Packed bitstream
Codec ID : XVID
Codec ID/Hint : XviD
Duration : 1h 12mn
Bit rate : 601 Kbps
Width : 640 pixels
Height : 480 pixels
Display aspect ratio : 4:3
Frame rate : 25.000 fps
Color space : YUV
Chroma subsampling : 4:2:0
Bit depth : 8 bits
Scan type : Progressive
Compression mode : Lossy
Bits/(Pixel*Frame) : 0.078
Stream size : 310 MiB (90%)
Writing library : XviD 64
Audio
ID : 1
Format : MPEG Audio
Format version : Version 1
Format profile : Layer 3
Codec ID : 55
Codec ID/Hint : MP3
Duration : 1h 12mn
Bit rate mode : Constant
Bit rate : 56.0 Kbps
Channel(s) : 1 channel
Sampling rate : 32.0 KHz
Compression mode : Lossy
Stream size : 28.9 MiB (8%)
Alignment : Aligned on interleaves
Interleave, duration : 40 ms (1.00 video frame)
Interleave, preload duration : 504 ms
Other forum [Profile] [PM]
Display posts from previous:    
Reply to topic

The time now is: Today 10:06

All times are GMT + 3 Hours



You cannot post new topics in this forum
You cannot reply to topics in this forum
You cannot edit your posts in this forum
You cannot delete your posts in this forum
You cannot vote in polls in this forum
You cannot attach files in this forum
You cannot download files in this forum