Today is a free download without charge Download

Открытие трех станций минского метрополитена к дню Великой Октябрьской Революции (2012) DVBRip

Reply to topic
 
Author
Message

Omen ®

Longevity: 9 years 1 month

Posts: 181086

Торрент-статистика

Post 29-Jan-2013 04:45

[Quote]


Информация о фильме
Название: Открытие трех станций минского метрополитена к дню Великой Октябрьской Революции
Год выхода: 2012
Жанр: интервью
Производство: Белтелерадиокомпания
Страна: Беларусь
Продолжительность программы: 00:29:58
Перевод: Не требуется
Описание: В минском метро пополнение: «Грушевка», «Михалово» и «Петровщина». Новый участок подземки по традиции накануне 7 ноября открыл Президент. Три новые станции – это продолжение первой линии подземки. Она подросла на 5 с лишним километров, а юго-западные районы Минска получили быструю и удобную связь с центром города.
Так же Президент ответил на ряд вопросов местных СМИ, которые выясняли отношение Президента к Великой Октябрьской Революции, к президентским выборам в США 2012г и американской выборной системе в целом.
Файл
Кодек: XviD
Качество: DVBRip
Видео: 640x480, 25 к/с, 4:3, 1200 кбит/с
Звук: MP3, 64 кбит/с, 48 кгц, моно

MediaInfo

General
Format : AVI
Format/Info : Audio Video Interleave
File size : 273 MiB
Duration : 29mn 58s
Overall bit rate : 1 274 Kbps
Writing application : VirtualDubMod 1.5.10.2 (build 2540/release)
Writing library : VirtualDubMod build 2540/release
Video
ID : 0
Format : MPEG-4 Visual
Format profile : Advanced [email protected]
Format settings, BVOP : 2
Format settings, QPel : Yes
Format settings, GMC : No warppoints
Format settings, Matrix : Default (MPEG)
Muxing mode : Packed bitstream
Codec ID : XVID
Codec ID/Hint : XviD
Duration : 29mn 58s
Bit rate : 1 200 Kbps
Width : 640 pixels
Height : 480 pixels
Display aspect ratio : 4:3
Frame rate : 25.000 fps
Color space : YUV
Chroma subsampling : 4:2:0
Bit depth : 8 bits
Scan type : Progressive
Compression mode : Lossy
Bits/(Pixel*Frame) : 0.156
Stream size : 257 MiB (94%)
Writing library : XviD 1.2.1 (UTC 2008-12-04)
Audio
ID : 1
Format : MPEG Audio
Format version : Version 1
Format profile : Layer 3
Codec ID : 55
Codec ID/Hint : MP3
Duration : 29mn 58s
Bit rate mode : Constant
Bit rate : 64.0 Kbps
Channel(s) : 1 channel
Sampling rate : 48.0 KHz
Compression mode : Lossy
Stream size : 13.7 MiB (5%)
Alignment : Aligned on interleaves
Interleave, duration : 40 ms (1.00 video frame)
Interleave, preload duration : 504 ms
Other forum [Profile] [PM]
Display posts from previous:    
Reply to topic

The time now is: Today 00:14

All times are GMT + 3 Hours



You cannot post new topics in this forum
You cannot reply to topics in this forum
You cannot edit your posts in this forum
You cannot delete your posts in this forum
You cannot vote in polls in this forum
You cannot attach files in this forum
You cannot download files in this forum