Сегодня идет свободное скачивание без начисления Download

9:06 / 9:06 (Игор Стерк / Igor Sterk) [2009, Германия, Словения, триллер, драма, DVDRip] MVO original slo

Ответить на тему
 
Автор
Сообщение

nsa1977 ®

Пол:

Стаж: 8 лет 9 месяцев

Сообщений: 1475

Откуда: Пенза

Торрент-статистика

Пост 09-Май-2011 19:25

[Цитировать]

9:06 / 9:06
-Страна: Германия, Словения
Жанр: триллер, драма
Год выпуска: 2009
Продолжительность: 1:11:07
Перевод: Профессиональный (многоголосый закадровый)
Cубтитры: нет
Оригинальная аудиодорожка: словацкий-Режиссер: Игор Стерк / Igor Sterk-В ролях: Силва Чушин Лабина Митевска Павле Равнохриб Игор Самобор-Описание: Инспектор полиции Душан расследует обстоятельства смерти некоего Марьяна Озима. Вскоре он начинает понимать, что это было самоубийство, но по мере расследования Душан все больше и больше погружается в жизнь Марьяна, переезжает в его квартиру, знакомится с людьми, знавшими Марьяна, и постепенно становится на его место…- -Качество видео: DVDRip [Источник рипа не известен]
Формат видео: AVI
Видео: 640x352 (16:9), 25 fps, XviD MPEG-4 ~916 kbps avg, 0.16 bit/pixel
Аудио #1: 44.1 kHz, AC3 Dolby Digital, 2/0 (L,R) ch, ~192 kbps
Аудио #2: 48 kHz, AC3 Dolby Digital, 3/2 (L,C,R,l,r) + LFE ch, ~448 kbps
Скачать: Сэмпл-

MediaInfo

General
Complete name : 9.06.2009.P.DVDRip.avi
Format : AVI
Format/Info : Audio Video Interleave
File size : 799 MiB
Duration : 1h 11mn
Overall bit rate : 1 571 Kbps
Writing application : VirtualDubMod 1.5.10.2 (build 2540/release)
Writing library : VirtualDubMod build 2540/release
Video
ID : 0
Format : MPEG-4 Visual
Format profile : Advanced [email protected]
Format settings, BVOP : Yes
Format settings, QPel : No
Format settings, GMC : No warppoints
Format settings, Matrix : Default (H.263)
Muxing mode : Packed bitstream
Codec ID : XVID
Codec ID/Hint : XviD
Duration : 1h 11mn
Bit rate : 917 Kbps
Width : 640 pixels
Height : 352 pixels
Display aspect ratio : 16:9
Frame rate : 25.000 fps
Color space : YUV
Chroma subsampling : 4:2:0
Bit depth : 8 bits
Scan type : Progressive
Compression mode : Lossy
Bits/(Pixel*Frame) : 0.163
Stream size : 466 MiB (58%)
Writing library : XviD 1.3.0.dev55
Audio #1
ID : 1
Format : AC-3
Format/Info : Audio Coding 3
Mode extension : CM (complete main)
Codec ID : 2000
Duration : 1h 11mn
Bit rate mode : Constant
Bit rate : 192 Kbps
Channel(s) : 2 channels
Channel positions : Front: L R
Sampling rate : 44.1 KHz
Bit depth : 16 bits
Compression mode : Lossy
Stream size : 97.4 MiB (12%)
Alignment : Aligned on interleaves
Interleave, duration : 40 ms (1.00 video frame)
Interleave, preload duration : 522 ms
Audio #2
ID : 2
Format : AC-3
Format/Info : Audio Coding 3
Mode extension : CM (complete main)
Codec ID : 2000
Duration : 1h 11mn
Bit rate mode : Constant
Bit rate : 448 Kbps
Channel(s) : 6 channels
Channel positions : Front: L C R, Side: L R, LFE
Sampling rate : 48.0 KHz
Bit depth : 16 bits
Compression mode : Lossy
Stream size : 228 MiB (29%)
Alignment : Split accross interleaves
Interleave, duration : 40 ms (1.00 video frame)
Interleave, preload duration : 500 ms

Трейлер

    

_________________


Последний раз редактировалось: nsa1977 (2011-05-09 19:27), всего редактировалось 3 раз(а)
Вне форума [Профиль] [ЛС]
Показать сообщения:    
Ответить на тему

Текущее время: Сегодня 14:05

Часовой пояс: GMT + 3



Вы не можете начинать темы
Вы не можете отвечать на сообщения
Вы не можете редактировать свои сообщения
Вы не можете удалять свои сообщения
Вы не можете голосовать в опросах
Вы не можете прикреплять файлы к сообщениям
Вы не можете скачивать файлы