Today is a free download without charge Download

Разведчики. Фильм 1: Последний бой, Фильм 2: Война после войны (12 серий из 12) (Александр Замятин) [2008 г.] (военный) [DVDRip]

Reply to topic
 
Author
Message

nsa1977 ®

Gender:

Longevity: 11 years

Posts: 1470

Location: Пенза

Торрент-статистика

Post 09-May-2011 18:49

[Quote]

Разведчики
Фильм 1: Последний бой,
Фильм 2: Война после войны

(12 серий из 12)

Год выпуска: 2008
Производство: Россия
Жанр: военный
Продолжительность: ~00:45/ серия
Оригинальный аудиопоток: Русский
Режиссер: Александр Замятин
В ролях: Борис Щербаков, Максим Заусалин, Александр Суворов, Михаил Тарабукин, Никита Слопин, Евгений Лоза, Вадим Андреев, Владимир Стержаков
Описание
Фильм 1. Последний бой
В самом конце войны в разведывательное управление Красной Армии поступают сведения о немецких сверхсекретных разработках новейших летательных аппаратов вертикального взлета - дисколетов. По данным разведки это ни на что не похожие аппараты обладают фантастическими возможностями и, в случае успешного завершения испытаний, могут перевернуть ход уже почти закончившейся войны.
Полковник Чернобров (Борис Щербаков) получает задание - добыть сведения, подтверждающие или опровергающие невероятные данные разведки. Вместе с группой разведчиков, поступивших в его распоряжение, Чернобров отправляется в один из вероятных районов размещение немецкого секретного завода - лесную местность о горном массиве западной Чехии...
-Описание
Фильм 2: Война после войны
Оставшихся в живых героев фильма "Разведчики: Последний бой" судьба вновь сводит вместе уже через два года после войны. капитан Максимов прибывает для дальнейшего прохождения службы в воинскую часть в небольшой приморский городок. Жизнь здесь уже основательно вошла в мирное русло. Но Максимов сразу же по приезду оказывается вовлеченным в водоворот опасных событий. Убиты часовые в ограблен склад оружия военного гарнизона, которым командует генерал Чернобров. Теперь бывшим разведчикам предстоит вести другую войну - войну против бандитов...
-Качество: DVDRip
Формат: AVI
Видео кодек: XviD
Аудио кодек: AC3
Видео: XviD, 720x400 (16/9), 25.000 fps, 1 719 Kbps (0.239 bit/pixel)
Аудио: AC-3, 48.0 KHz, 2 ch, 256 Kbps, CBR

Media Info

Формат : AVI
Формат/Информация : Audio Video Interleave
Размер файла : 624 Мбайт
Продолжительность : 43 м.
Общий поток : 1985 Кбит/сек
Программа кодирования : VirtualDubMod 1.5.10.2 (build 2540/release)
Библиотека кодирования : VirtualDubMod build 2540/release
Видео
Идентификатор : 0
Формат : MPEG-4 Visual
Профиль формата : Advanced [email protected]
Параметр BVOP формата : 3
Параметр QPel формата : Нет
Параметр GMC формата : Без точки перехода
Параметр матрицы формата : Default (MPEG)
Режим смешивания : Сжатый битовый поток
Идентификатор кодека : XVID
Идентификатор кодека/Подсказка : XviD
Продолжительность : 43 м.
Битрейт : 1719 Кбит/сек
Ширина : 720 пикс.
Высота : 400 пикс.
Соотношение сторон : 16:9
Частота кадров : 25,000 кадр/сек
Цветовое пространство : YUV
Подвыборка цветности : 4:2:0
Битовая глубина : 8 бит
Тип развёртки : Прогрессивная
Метод сжатия : С потерями
Бит/(Пиксели*Кадры) : 0.239
Размер потока : 541 Мбайт (87%)
Библиотека кодирования : XviD 1.2.0.dev47 (UTC 2006-11-01)
Аудио
Идентификатор : 1
Формат : AC-3
Формат/Информация : Audio Coding 3
Расширение режима : CM (complete main)
Идентификатор кодека : 2000
Продолжительность : 43 м.
Вид битрейта : Постоянный
Битрейт : 256 Кбит/сек
Канал(ы) : 2 канала(ов)
Расположение каналов : Front: L R
Частота : 48,0 КГц
Битовая глубина : 16 бит
Метод сжатия : С потерями
Размер потока : 80,5 Мбайт (13%)
Выравнивание : Разделение по промежуткам
Продолжительность промежутка : 40 мс. (1,00 видеокадр)
Время предзагрузки промежутка : 500 ms
    

_________________


Last edited by nsa1977 on 2011-05-09 18:50; edited 1 time in total
Other forum [Profile] [PM]
Similar theme
Forum Topic Author Torrent Replies Last Post
./templates/default/images/folder_dl.gif Сатира, Юмор Микки Нокс | Психиатры шутят. Краткое руководство по разведению тараканов (2017) [FB2] }{@R0N
1 | 0

0 | 27301

8

2017-07-16 22:29
}{@R0N Latest
Display posts from previous:    
Reply to topic

The time now is: Today 13:05

All times are GMT + 3 Hours



You cannot post new topics in this forum
You cannot reply to topics in this forum
You cannot edit your posts in this forum
You cannot delete your posts in this forum
You cannot vote in polls in this forum
You cannot attach files in this forum
You cannot download files in this forum