Today is a free download without charge Download

Интервью Президента Беларуси Александра Лукашенко международному информационному агенству Рейтер [Телеверсия] (2012) DVBRip

Reply to topic
 
Author
Message

Omen ®

Longevity: 9 years

Posts: 181086

Торрент-статистика

Post 29-Jan-2013 04:42

[Quote]


Информация о фильме
Название: Интервью Президента Беларуси Александра Лукашенко британскому информационному агенству Рейтер [Телеверсия]
Год выхода: 2012
Жанр: интервью
Производство: Белтелерадиокомпания
Страна: Беларусь
Продолжительность программы: 00:15:43
Перевод: Не требуется
Описание: Президент Беларуси Александр Лукашенко 26 ноября дал интервью одному из крупнейших международных информационных агентств "Рейтер". Беседа продолжалась более полутора часов. Главе государства было задано около 20 вопросов, большинство из которых касались социально-экономического развития страны, модернизации и возможной приватизации предприятий. Также Александр Лукашенко ответил на вопросы о совершенствовании политической системы Беларуси, развитии демократии, внешней политике, взаимоотношениях с Евросоюзом и Россией.
Файл
Кодек: XviD
Качество: DVBRip
Видео: 640x480, 25 к/с, 4:3, 600 кбит/с
Звук: MP3, 64 кбит/с, 48 кгц, моно

MediaInfo

Format : AVI
Format/Info : Audio Video Interleave
File size : 75.6 MiB
Duration : 15mn 43s
Overall bit rate : 672 Kbps
Writing application : VirtualDubMod 1.5.10.2 (build 2540/release)
Writing library : VirtualDubMod build 2540/release
Video
ID : 0
Format : MPEG-4 Visual
Format profile : Advanced [email protected]
Format settings, BVOP : 2
Format settings, QPel : Yes
Format settings, GMC : No warppoints
Format settings, Matrix : Default (MPEG)
Muxing mode : Packed bitstream
Codec ID : XVID
Codec ID/Hint : XviD
Duration : 15mn 43s
Bit rate : 598 Kbps
Width : 640 pixels
Height : 480 pixels
Display aspect ratio : 4:3
Frame rate : 25.000 fps
Color space : YUV
Chroma subsampling : 4:2:0
Bit depth : 8 bits
Scan type : Progressive
Compression mode : Lossy
Bits/(Pixel*Frame) : 0.078
Stream size : 67.3 MiB (89%)
Writing library : XviD 1.2.1 (UTC 2008-12-04)
Audio
ID : 1
Format : MPEG Audio
Format version : Version 1
Format profile : Layer 3
Codec ID : 55
Codec ID/Hint : MP3
Duration : 15mn 43s
Bit rate mode : Constant
Bit rate : 64.0 Kbps
Channel(s) : 1 channel
Sampling rate : 48.0 KHz
Compression mode : Lossy
Stream size : 7.20 MiB (10%)
Alignment : Aligned on interleaves
Interleave, duration : 40 ms (1.00 video frame)
Interleave, preload duration : 504 ms
Other forum [Profile] [PM]
Similar theme
Forum Topic Author Torrent Replies Last Post
./templates/default/images/folder_dl.gif Разное Антонов Олег Борисович - Олег Борисович Антонов - Культура, Интернет и будущее [2014, PDF] OlegAlm
1 | 0

1 | 4552

4

2014-03-26 10:57
Dracula Latest
./templates/default/images/folder_dl.gif Скрипты и шаблоны ShopOS (2.5.9) PHP-скрипт интернет-магазина SmartSoft
0 | 1

0 | 2582

23

2015-02-20 22:38
SmartSoft Latest
Display posts from previous:    
Reply to topic

The time now is: Today 17:47

All times are GMT + 3 Hours



You cannot post new topics in this forum
You cannot reply to topics in this forum
You cannot edit your posts in this forum
You cannot delete your posts in this forum
You cannot vote in polls in this forum
You cannot attach files in this forum
You cannot download files in this forum