Today is a free download without charge Download

Раскрутка (Сезон: 1 Серии:1- 8 из 8) (Егор Анашкин) [2010] (драма, детектив) [DVD9 R5 PAL 16:9]

Reply to topic
 
Author
Message

nsa1977 ®

Gender:

Longevity: 11 years

Posts: 1470

Location: Пенза

Торрент-статистика

Post 09-May-2011 11:04

[Quote]

-Раскрутка(Серии:1- 8 из 8)-«Сотрудники МУРа в борьбе с 'Чёрным киллером'»-Страна: Россия
Студия: Всемирные Русские Студии
Жанр: драма, детектив
Год выпуска: 2010
Перевод: Оригинал [Лицензия]
Продолжительность: 8 x 00:50:34
Субтитры: нет-Режиссёр: Егор Анашкин-В ролях: Александр Наумов, Елена Корикова, Андрей Барило, Евгений Антропов, Александр Макогон, Михаил Горевой, Александр Стефанцов, Александр Сирин, Юрий Шлыков, Иван Агапов, Юрий Нифонтов, Леонид Тимцуник, Елена Доронина (III), Анастасия Бусыгина-Описание: Безжалостный черный киллер Виктор Перцев сбегает во время следственного эксперимента, и теперь сотрудник МУРа, Юрий Девяткин, упустивший преступника, должен, во что бы то ни стало, найти беглеца.-Доп. информация: Смотрите на DVD- -Релиз группы: -Качество: DVD9 R5
Формат: DVD-Video
Видео кодек: MPEG2
Аудио кодек: AC3
Видео: PAL 16:9 (720x576(3.064)) MPEG Video,25,000 кадр/сек, 6000 Кбит/сек
Аудио: Russian (Dolby AC3, 2 ch) 192 Кбит/сек, 48,0 КГц-Обложка
Скан диска-
-

DVDInfo

Title: F
Size: 7.85 Gb ( 8 232 918 KBytes ) - DVD-9
Enabled regions: 1, 2, 3, 4, 5, 6, 7, 8
VTS_01 :
Play Length: 06:46:15
Video: PAL 16:9 (720x576) VBR, Auto Letterboxed
Audio:
English (Dolby AC3, 2 ch)
VTS_02 :
Play Length: 00:01:44+00:02:14+00:04:59+00:01:42
Video: PAL 4:3 (720x576) VBR
Audio:
English (Dolby AC3, 2 ch)

MediaInfo

Общее
Полное имя : E:\Новинки 2011\Raskrutka.2010.DVD9\VIDEO_TS\VTS_01_1.VOB
Формат : MPEG-PS
Размер файла : 1024 Мбайт
Продолжительность : 4 м. 23 с.
Общий поток : 32,6 Мбит/сек
Видео
Идентификатор : 224 (0xE0)
Формат : MPEG Video
Версия формата : Version 2
Профиль формата : [email protected]
Параметр BVOP формата : Да
Параметр матрицы формата : По умолчанию
Продолжительность : 4 м. 23 с.
Вид битрейта : Переменный
Битрейт : 31,8 Мбит/сек
Номинальный битрейт : 6000 Кбит/сек
Ширина : 720 пикс.
Высота : 576 пикс.
Соотношение сторон : 16:9
Частота кадров : 25,000 кадр/сек
Стандарт вещания : PAL
Цветовое пространство : YUV
Подвыборка цветности : 4:2:0
Битовая глубина : 8 бит
Тип развёртки : Прогрессивная
Метод сжатия : С потерями
Бит/(Пиксели*Кадры) : 3.064
Размер потока : 998 Мбайт (97%)
Аудио
Идентификатор : 189 (0xBD)-128 (0x80)
Формат : AC-3
Формат/Информация : Audio Coding 3
Расширение режима : CM (complete main)
Режим смешивания : DVD-Video
Продолжительность : 4 м. 23 с.
Вид битрейта : Постоянный
Битрейт : 192 Кбит/сек
Канал(ы) : 2 канала(ов)
Расположение каналов : Front: L R
Частота : 48,0 КГц
Битовая глубина : 16 бит
Метод сжатия : С потерями
Размер потока : 6,02 Мбайт (1%)

Скриншоты меню

   

Скриншоты фильма

        

_________________


Last edited by nsa1977 on 2011-08-01 01:36; edited 3 times in total
Other forum [Profile] [PM]
Display posts from previous:    
Reply to topic

The time now is: Today 14:06

All times are GMT + 3 Hours



You cannot post new topics in this forum
You cannot reply to topics in this forum
You cannot edit your posts in this forum
You cannot delete your posts in this forum
You cannot vote in polls in this forum
You cannot attach files in this forum
You cannot download files in this forum