Today is a free download without charge Download

Стив Джобс: Потерянное интервью / Steve Jobs: The Lost Interview (2012) DVDRip-AVC | P1

Reply to topic
 
Author
Message

Omen ®

Longevity: 9 years

Posts: 181086

Торрент-статистика

Post 29-Jan-2013 04:41

[Quote]


Информация о фильме
Название: Стив Джобс: Потерянное интервью
Оригинальное название: Steve Jobs: The Lost Interview
Год выхода: 2012
Жанр: Документальный
Режиссер: Paul Sen
В ролях: Steve Jobs, Robert Cringely
О фильме:
В 1995 году во время съемок телевизионной передачи о появлении персонального компьютера журналист и телеведущий Роберт Крингли взял интервью у Стива Джобса. Во время интервью Джобс как всегда блистал, был остроумен, говорил откровенно и описывал будущее компьютерных технологий предельно точно.
Когда передача вышла в свет, оказалось, что только небольшая часть интервью была использована, а полную запись разговора считали потерянной. И только совсем недавно режиссер Пол Сен нашел в своем гараже кассету с записью бесценного интервью. Как ни странно, но больших видеоинтервью со Стивом Джобсом осталось чрезвычайно мало. Продюсеры решили оцифровать запись и подарить бесчисленным поклонникам Джобса возможность вновь увидеть и услышать этого уникального человека.
Страна: США
Продолжительность: 01:06:31
Перевод: Русский - Профессиональный (одноголосый, закадровый)
Файл
Кодек: x.264
Контейнер: m4v
Качество: DVDRip-AVC
Видео: 720x784 (анаморф 1025x784), ∼1480kbps, 25fps
Звук:
AAC, 2 channels, 48.0 KHz, 160kbps VBR |Русский, одноголосый, закадровый|
AAC, 2 channels, 48.0 KHz, 160kbps VBR |Английский, оригинал|
Метатэги: Прописаны
Раздача будет полезна пользователям iOS и OS X платформ (из-за родных кодеков и контейнера).
При просмотре на Windows рекомендую пользоваться iTunes или VLC media player.

Скриншоты

x264 log

x264 [info]: frame I:437 Avg QP:14.32 size: 43923 PSNR Mean Y:50.89 U:52.27 V:53.04 Avg:51.30 Global:50.73
x264 [info]: frame P:27769 Avg QP:17.49 size: 17051 PSNR Mean Y:48.14 U:49.44 V:50.64 Avg:48.59 Global:48.44
x264 [info]: frame B:71592 Avg QP:20.29 size: 3458 PSNR Mean Y:47.19 U:49.16 V:50.53 Avg:47.80 Global:47.60
x264 [info]: consecutive B-frames: 1.9% 14.6% 11.0% 20.9% 46.7% 3.4% 1.4%
x264 [info]: mb I I16..4: 15.0% 70.3% 14.7%
x264 [info]: mb P I16..4: 1.9% 8.4% 1.4% P16..4: 44.5% 24.0% 11.5% 0.0% 0.0% skip: 8.3%
x264 [info]: mb B I16..4: 0.1% 0.4% 0.1% B16..8: 30.6% 4.4% 1.2% direct: 3.9% skip:59.4% L0:40.2% L1:51.1% BI: 8.7%
x264 [info]: 8x8 transform intra:71.6% inter:77.8%
x264 [info]: coded y,uvDC,uvAC intra: 75.0% 90.7% 58.2% inter: 17.6% 26.5% 2.4%
x264 [info]: i16 v,h,dc,p: 29% 9% 5% 57%
x264 [info]: i8 v,h,dc,ddl,ddr,vr,hd,vl,hu: 16% 5% 7% 8% 10% 18% 9% 17% 10%
x264 [info]: i4 v,h,dc,ddl,ddr,vr,hd,vl,hu: 14% 5% 4% 8% 15% 20% 12% 12% 9%
x264 [info]: i8c dc,h,v,p: 31% 17% 20% 32%
x264 [info]: Weighted P-Frames: Y:0.7% UV:0.5%
x264 [info]: ref P L0: 48.7% 7.1% 20.1% 5.0% 5.5% 3.7% 4.3% 2.3% 2.9% 0.4% 0.0%
x264 [info]: ref B L0: 81.9% 13.1% 2.3% 1.0% 0.6% 0.6% 0.4% 0.2%
x264 [info]: ref B L1: 94.5% 5.5%
x264 [info]: SSIM Mean Y:0.9904782 (20.213db)
x264 [info]: PSNR Mean Y:47.471 U:49.248 V:50.574 Avg:48.038 Global:47.826 kb/s:1483.48

Media Info

Video #1
ID : 1
Format : AVC
Format/Info : Advanced Video Codec
Format profile : [email protected]
Format settings, CABAC : Yes
Format settings, ReFrames : 9 frames
Codec ID : avc1
Codec ID/Info : Advanced Video Coding
Duration : 1h 6mn
Bit rate mode : Variable
Bit rate : 1 483 Kbps
Width : 720 pixels
Height : 784 pixels
Display aspect ratio : 4:3
Frame rate mode : Constant
Frame rate : 25.000 fps
Color space : YUV
Chroma subsampling : 4:2:0
Bit depth : 8 bits
Scan type : Progressive
Bits/(Pixel*Frame) : 0.105
Stream size : 706 MiB (82%)
Writing library : x264 core 120
Encoding settings : cabac=1 / ref=9 / deblock=1:0:0 / analyse=0x3:0x113 / me=umh / subme=9 / psy=1 / psy_rd=1.00:0.00 / mixed_ref=1 / me_range=32 / chroma_me=1 / trellis=1 / 8x8dct=1 / cqm=0 / deadzone=21,11 / fast_pskip=1 / chroma_qp_offset=-2 / threads=3 / sliced_threads=0 / nr=0 / decimate=1 / interlaced=0 / bluray_compat=0 / constrained_intra=0 / bframes=6 / b_pyramid=2 / b_adapt=1 / b_bias=0 / direct=1 / weightb=1 / open_gop=0 / weightp=2 / keyint=250 / keyint_min=25 / scenecut=40 / intra_refresh=0 / rc_lookahead=40 / rc=crf / mbtree=1 / crf=18.0 / qcomp=0.60 / qpmin=3 / qpmax=69 / qpstep=4 / ip_ratio=1.40 / aq=1:1.00
Language : English
Encoded date : UTC 2012-12-03 16:41:15
Tagged date : UTC 2012-12-03 16:41:34
Color primaries : BT.601-6 525, BT.1358 525, BT.1700 NTSC, SMPTE 170M
Transfer characteristics : BT.709-5, BT.1361
Matrix coefficients : BT.601-6 525, BT.1358 525, BT.1700 NTSC, SMPTE 170M
Video #2
ID : 5
Format : JPEG
Codec ID : jpeg
Duration : 1h 6mn
Bit rate mode : Variable
Bit rate : 698 bps
Width : 640 pixels
Height : 489 pixels
Display aspect ratio : 4:3
Frame rate mode : Variable
Frame rate : 0.002 fps
Minimum frame rate : 0.001 fps
Maximum frame rate : 0.004 fps
Color space : YUV
Chroma subsampling : 4:2:0
Bit depth : 8 bits
Compression mode : Lossy
Bits/(Pixel*Frame) : 1.115
Stream size : 256 KiB (0%)
Language : English
Encoded date : UTC 2012-12-03 16:41:44
Tagged date : UTC 2012-12-03 16:41:45
Audio #1
ID : 2
Format : AAC
Format/Info : Advanced Audio Codec
Format profile : LC
Codec ID : 40
Duration : 1h 6mn
Bit rate mode : Variable
Bit rate : 160 Kbps
Maximum bit rate : 254 Kbps
Channel(s) : 2 channels
Channel positions : Front: L R
Sampling rate : 48.0 KHz
Compression mode : Lossy
Stream size : 76.1 MiB (9%)
Language : Russian
Encoded date : UTC 2012-12-03 16:41:15
Tagged date : UTC 2012-12-03 16:41:38
Audio #2
ID : 3
Format : AAC
Format/Info : Advanced Audio Codec
Format profile : LC
Codec ID : 40
Duration : 1h 6mn
Bit rate mode : Variable
Bit rate : 150 Kbps
Maximum bit rate : 173 Kbps
Channel(s) : 2 channels
Channel positions : Front: L R
Sampling rate : 48.0 KHz
Compression mode : Lossy
Stream size : 71.2 MiB (8%)
Language : English
Encoded date : UTC 2012-12-03 16:41:15
Tagged date : UTC 2012-12-03 16:41:41
Text
ID : 4
Format : Apple text
Codec ID : text
Duration : 1h 6mn
Bit rate mode : Constant
Bit rate : 0 bps
Stream size : 138 Bytes (0%)
Language : English
Encoded date : UTC 2012-12-03 16:41:41
Tagged date : UTC 2012-12-03 16:41:41
Menu
00:00:00.000 : Chapter 1
00:07:25.800 : Chapter 2
00:16:14.400 : Chapter 3
00:30:28.200 : Chapter 4
00:50:45.000 : Chapter 5
01:02:42.600 : Chapter 6
Other forum [Profile] [PM]
Display posts from previous:    
Reply to topic

The time now is: Today 06:30

All times are GMT + 3 Hours



You cannot post new topics in this forum
You cannot reply to topics in this forum
You cannot edit your posts in this forum
You cannot delete your posts in this forum
You cannot vote in polls in this forum
You cannot attach files in this forum
You cannot download files in this forum